Oops.. Este post tiene los enlaces eliminados!

Identi revisa las denuncias de los usuarios en busca de enlaces eliminados que no dejan descargar los archivos, este mensaje te informa que este post que estas viendo tiene los enlaces eliminados.

Usa el Buscador

Por favor, te recomendamos que uses el buscador para encontrar más alternativas.

Sodom Mortal Way of live

  • Categoría: Reciclaje
  • Publicado hace más de 4 años








HOLA Y ADIOS NO TENGO GANAS DE COMENTAR AHI DESCARGEN COMENTEN Y SOBRE TODO DEJEN PUNTOS PETARDOS


Mortal Way of Live

1. Outbreak Of Evil
2. Iron Fist (Motörhead cover)
3. Nuclear Winter
4. Electrocution
5. Obsessed By Cruelty
6. Blasphemer
7. Christ Passion
8. Sodomy And Lust
9. Bombenhagel


Tom Angelripper Vocals, Bass
Frank Blackfire Guitars
Chris Witchhunter (R.I.P. 2008) Drums



http://www.identi.li/index.php?action=profile, user = Rafadeth

Visiten mi Perfil Mas de 70 Rips de metales autentico



General


Format                                   : DivX
Format/Info                              : Hack of AVI
File size                                : 412 MiB
Duration                                 : 54mn 37s
Overall bit rate                         : 1 054 Kbps

Video
ID                                       : 0
Format                                   : MPEG-4 Visual
Format settings, BVOP                    : 1
Format settings, QPel                    : No
Format settings, GMC                     : No warppoints
Format settings, Matrix                  : Default (H.263)
Muxing mode                              : Packed bitstream
Codec ID                                 : DX50
Codec ID/Hint                            : DivX 5
Duration                                 : 54mn 37s
Bit rate                                 : 850 Kbps
Width                                    : 720 pixels
Height                                   : 480 pixels
Display aspect ratio                     : 4:3
Frame rate                               : 29.970 fps
Standard                                 : NTSC
Color space                              : YUV
Chroma subsampling                       : 4:2:0
Bit depth                                : 8 bits
Scan type                                : Progressive
Compression mode                         : Lossy
Bits/(Pixel*Frame)                       : 0.082
Stream size                              : 332 MiB (81%)
Title                                    : Video
Writing library                          : DivX 6.6.1.4

Audio
ID                                       : 1
Format                                   : MPEG Audio
Format version                           : Version 1
Format profile                           : Layer 3
Codec ID                                 : 55
Codec ID/Hint                            : MP3
Duration                                 : 54mn 37s
Bit rate mode                            : Constant
Bit rate                                 : 192 Kbps
Channel(s)                               : 2 channels
Sampling rate                            : 48.0 KHz
Compression mode                         : Lossy
Stream size                              : 75.0 MiB (18%)
Alignment                                : Split accross interleaves
Interleave, duration                     : 33 ms (1.00 video frame)
Interleave, preload duration             : 500 ms
Title                                    : Audio







Si no te gusta el metal de toma y si Eres crapero

seguirme si les gustaron las minas Seguro Que si


y ademas si odias mierda en el Identi.

y ademas si odias el crap en Identi.


Metal en la sangre




Sodom Mortal Way of live
20 Puntos Score: 6.7/10
Visitas: 997 Favoritos: 0
Ver los usuarios que votaron...
13 Comentarios Sodom Mortal Way of live
que buena banda men! muchas gracias  
-Bobby me voy a hacer cumbiero....

-TOMA, para que aprendas...
este concierto se ve bueno Rafa habra que checarlo aun que te dire que no soy muy fan de sodom, pero como sea es buena banda me gustan algunas canciones, gracias rafa ya vuelves con tus buenos aportes
@THECURE que los demas son malos o que  ? explicate
Cita Rafadeth: Mostrar

no seas sentido rafa eres el reaccionario mas r?
@THECURE   esque esta pegando duro el crap creo me hicieron brujeria  una crapera ya me alcanzo haciendo puro copy paste ya ni vale la pena seguir subiendo aqui casi nadie valora y mp3 tambien tengo madral de material pero siento qu es mas compromiso subir discografias los rips me laten mas e pensado en subir algunos dvd full pero para que subir mas de 3 gbs y nadie le importa  
muchas gracias una vez mas hermano, hoy me llev?
Cita Rafadeth: Mostrar

jajjaja una crapera te hizo brujeria, jajaja sigue con los rips amigo, la verdad la pienso mucho en bajar un dvd full, prefiero mil veces los rips a menos que sea de megadeth, que ye tengo muchos dvd?
que excelente aporte amigo rafa!!! yo lo tenia en vhs y nunca mas lo vi, hace mucho que lo buscaba millones de graciasssss
Muchas gracias!!!!!!!!!!!!!
Muchas Gracias Por Compartir Muy Buen Material y con poco peso para Descargarlo!!! Y Gracias por Avisarme Te Sigo
gracias mi pana  
SODOM!!!!!!!!!!!!!!!!!!!!!!!  GREAT.....GRACIAS
Para dejar un comentario Registrate! o.. eres ya usuario? Accede!