Primal Fear All over the world Rip





Buenas tardes petardos en agradecimiento a mi compadre el Mantecas aporto este recital de Primal Fear un grande del Metal Germano para los qu saben a que me refiero sabran entender incomparable la voz de mi tocayo  Ralf Scheepers comenten dejen puntos
1.  Before the Devil Knows You're Dead   instrumental
2.  Under the Radar
3.  Battalions of Hate
4.  Killbound   
5.  Nuclear Fire   
6.  Six Times Dead
7.  Angel in Black   
8.  Sign of Fear   
9.  Fighting the Darkness
10.  Riding the Eagle
11.  Final Embrace
12.  Metal is Forever
13.  Hands of Time
14.  Seven Seals
15.  Chainbreaker

Ralf Scheepers  Vocals
Alex Beyrodt  Guitars
Randy Black  Drums
Mat Sinner  Bass, Vocals (backing)
Henny Wolter  Guitars, Vocals (backing)


http://www.identi.li/index.php?action=profile;user=Rafadeth

Visiten mi perfil Mas de 70 Rips de autentico metal
General             
Format                           : MPEG-4
Codec ID                         : M4V 
File size                        : 412 MiB
Duration                         : 1h 26mn
Overall bit rate                 : 666 Kbps
widt                             : (Binary)
heig                             : (Binary)
Video
ID                               : 1
Format                           : AVC
Format/Info                      : Advanced Video Codec
Format profile                   : [email protected]
Format settings, CABAC           : No
Format settings, ReFrames        : 1 frame
Format settings, GOP             : M=1, N=60
Codec ID                         : avc1
Codec ID/Info                    : Advanced Video Coding
Duration                         : 1h 26mn
Bit rate mode                    : Variable
Bit rate                         : 567 Kbps
Maximum bit rate                 : 1 408 Kbps
Width                            : 494 pixels
Height                           : 360 pixels
Display aspect ratio             : 1.372
Frame rate mode                  : Constant
Frame rate                       : 29.970 fps
Color space                      : YUV
Chroma subsampling               : 4:2:0
Bit depth                        : 8 bits
Scan type                        : Progressive
Bits/(Pixel*Frame)               : 0.106
Stream size                      : 351 MiB (85%)
Audio
ID                               : 2
Format                           : AAC
Format/Info                      : Advanced Audio Codec
Format profile                   : LC
Codec ID                         : 40
Duration                         : 1h 26mn
Bit rate mode                    : Constant
Bit rate                         : 96.0 Kbps
Channel(s)                       : 2 channels
Channel positions                : Front: L R
Sampling rate                    : 44.1 KHz
Compression mode                 : Lossy
Stream size                      : 59.3 MiB (14%)

http://www.mediafire.com/?lhwkwfsbhlzxdqz,111mlgwuqc10b7g,u5jq3jo3p14waxq,xjxn3x2r96nx64d,b45tcrcasw9ndrn


Si no te gusta el metal toma y si eres crapero

Seguirme si les gustaron las minas seguro que si

y ademas si odias el crap en Identi.

Nosotras seguimos a RAFADETH  porque tu no?detestamos el crap
Metal en la sangre


Primal Fear All over the world Rip
0 Puntos Score: 0/10
Visitas: 1297 Favoritos: 2
1 Comentarios Primal Fear All over the world Rip
me lo llevo para verlo ma?
Para dejar un comentario Registrate! o.. eres ya usuario? Accede!