Oops.. Este post tiene los enlaces eliminados!

Identi revisa las denuncias de los usuarios en busca de enlaces eliminados que no dejan descargar los archivos, este mensaje te informa que este post que estas viendo tiene los enlaces eliminados.

Usa el Buscador

Por favor, te recomendamos que uses el buscador para encontrar más alternativas.

Shaun of the Dead Dvd Rip Latino

  • Categoría: Reciclaje
  • Publicado hace más de 4 años





Shaun of the Dead es un británico de 2004 terror comedia zombi dirigida y co-escrita por Edgar Wright , y co-escrita y protagonizada por Simon Pegg junto a Nick Frost . Pegg interpreta a Shaun, un hombre tratando de obtener algún tipo de enfoque en su vida como él trata con su novia, su madre y su padrastro. Al mismo tiempo, tiene que hacer frente a una sublevación apocalíptica de zombies





General
          
Format                           : AVI
Format/Info                      : Audio Video Interleave
File size                        : 724 MiB
Duration                         : 1h 39mn
Overall bit rate                 : 1 019 Kbps
Writing application              : MEncoder SVN-r30881(20100311-gcc4.3.3)
Writing library                  : MPlayer

Video
ID                               : 0
Format                           : AVC
Format/Info                      : Advanced Video Codec
Format profile                   : [email protected]
Format settings, CABAC           : No
Format settings, ReFrames        : 1 frame
Codec ID                         : avc1
Duration                         : 1h 39mn
Bit rate                         : 825 Kbps
Width                            : 720 pixels
Height                           : 318 pixels
Display aspect ratio             : 2.25:1
Frame rate                       : 23.976 fps
Color space                      : YUV
Chroma subsampling               : 4:2:0
Bit depth                        : 8 bits
Scan type                        : Progressive
Bits/(Pixel*Frame)               : 0.150
Stream size                      : 579 MiB (80%)
Writing library                  : x264 core 80 r1378+57 6f6b50a
Encoding settings                : cabac=0 / ref=1 / deblock=1:0:0 / analyse=0x3:0x113 / me=hex / subme=7 / psy=1 / psy_rd=1.0:0.0 / mixed_ref=0 / me_range=16 / chroma_me=1 / trellis=0 / 8x8dct=1 / cqm=0 / deadzone=21,11 / fast_pskip=1 / chroma_qp_offset=-2 / threads=3 / sliced_threads=0 / nr=0 / decimate=1 / mbaff=0 / constrained_intra=0 / bframes=0 / wpredp=2 / keyint=250 / keyint_min=25 / scenecut=40 / rc_lookahead=40 / rc=abr / mbtree=1 / bitrate=825 / ratetol=1.0 / qcomp=0.60 / qpmin=10 / qpmax=51 / qpstep=4 / ip_ratio=1.40 / aq=1:1.00

Audio
ID                               : 1
Format                           : MPEG Audio
Format version                   : Version 1
Format profile                   : Layer 3
Mode                             : Joint stereo
Mode extension                   : MS Stereo
Codec ID                         : 55
Codec ID/Hint                    : MP3
Duration                         : 1h 39mn
Bit rate mode                    : Constant
Bit rate                         : 192 Kbps
Channel(s)                       : 2 channels
Sampling rate                    : 44.1 KHz
Compression mode                 : Lossy
Stream size                      : 136 MiB (19%)
Alignment                        : Aligned on interleaves
Interleave, duration             : 26 ms (0.63 video frame)
Interleave, preload duration     : 522 ms
Writing library                  : LAME3.98




TODOS ESTAN INVITADOS A COMENTAR DESCARGAR Y DISFRUTAR:@cris099 @Marianoaxl @pancho20 @Rafadeth @carlinx.av @random15 @Edelweiss@nicosnake @sexyalo32 @edgard19 @min71 @fredydarko @wyvern_rad @fak_iu@coreyvera @Chemi2077 @AngelFire @crismate @madarakiub @pancho20@DESTRUKTOR @random15  @metal3689 @Crucifyxae @wypywy @Bostera @Chuwa@madarakiub @miguemex @carlinx.av @pathaz @VINI_1 @camachf @CR07GT@tokoyo @miki_ginny @lonchin @Inicuo @sexyalo32 @zombie @Guitarist @ofdeath@ervred @alfredonap @H3rn4n @WARRIORS @lizard @edgard19 @darkmer@diegosalom @miztiko @maxpower @neofidodido @sawadypap @davidrojas@Innocence @dark72 @zhek @ezkta @razh @hades45 @jose64 @random15@changosj @granameb @Mustaine86 @BetoCZ @decapitated_pig @r6d6 @saga_666@elcuanto @estebanwarmetal @bobafett @jorgel @IMPERIOUS @ALVAREZ2 @Mael@rock_god @HYAKIMARU @killerpunk @gozrock @Valary @montiberns @JavierYnq@Logan27 @godbefa @Broker @spitaliano @malpa29 @tafarel @ezkta @DrakeN_@kenji81 @javo_091 @adolfmetal @Joshuevs @duende72 @nazareno. @Kurt_95@bravoxy @warrior57 @katogd @stratox @soda5022 @mprietoper @rodolfitof@LeoRokr @valdenegro @JGLOL @rafa020990 @joenrogri @yonko @caroraga17@rokalejandro @LOBITO1989 @kerinope @croght @lucerodj @alvarezaca @Jonymaco@chalesoy @grinderaus @Leon_Prest @Slash666 @oskidelrio @deranged @bestia87@julito_man @ChinoXMe @futboleiro @capasanhueza @claudiosan @TinchoMT09@apofis92 @cris099 @tangho @wwesodrate @Rekojz @lamas666 @fiokills @arielbojo@PiipGamers @quitodr @pacofo @nicopoli @nico_edlp @miguedeth @dantex00@manoIo12 @darktenma @dospesos @Ricotero10 @faramone19 @barulius@GEONOSIS @supernoise @Camer1 @JuanChalo0 @JFGC1292 @jovawar @percaraleo@TXUS @niandraz @Wesker5 @RooX2 @Mr05646 @ALVAREZ2 @gonzalez @christian.@cuxalop @KillEmAll2 @metalaw @Sufferage @paraguamat @NANIKY @KREATORR@JMOI2012 @vaahn @renopo @bossjanes @irronn @TroyMcClue @repubarg@heber099 @AnRu @Carlaale @kiko615 @darioe28 @luchitox @kruzliv @alvarockc1@boktzang @leydediez @koldo92 @darkpaja @Zodiaco @bluefenix @skt666 @razh@luisdav @Joshuevs @pakua @rock_god @dan5320 @r6d6 @14blackjack @F-A-C-U-@hades45 @elcuanto @fak_iu @jose64 @francocas @Byronizqui @columbia @SeRuJi0@inoue @chicoarc @Anita32 @kryz123 @Krista @elcarmen @dalmi @ENKELI@ignaciopp @wako3250 @SSaYk00 @venenorios @astorg @Ash_13 @IDAR@bakdoorman @krlhitho0o @DarkZombie @brendiux @guilleg.87 @ANUBIS79@google_fox95 @locodan @LEANDROS @Sprbelz @Rody_F @crisrock @Powerhead@slayerjair @micorio8 @fausjona @mistiko @garubo @mykyky @sion6x @superking@german @samhain @fernandoma @Gonza @ervred @scorpiorojo @federucho399@SuperStab @omarsan6 @cagv68 @caxondo_2 @contador @memo_92 @1van06@Controlerd @Demonio5 @jymlo @ragh2005 @maurrok @granameb @nickDN@perso6soft @chicoarc @mcdeymon @crespo20 @gdhisag @26negil @reggalex@ochibel @gerardolook @roclaude @jairoaaa @mazerrap @mcfly @rickyreyne @T1000@IamDseven @Ezedl 
Shaun of the Dead Dvd Rip Latino
10 Puntos Score: 10/10
Visitas: 2213 Favoritos: 2
Ver los usuarios que votaron...
8 Comentarios Shaun of the Dead Dvd Rip Latino
Me hiciste acordar esta pelicula, q buena q esta. A descargar GRACIAS  
muy buena pelicula  
alguien sabe que tal esta la peli (gracias por el aporte   )
es muy buena....son los mismos tipos  ke salen en la pelicula paul el e.t.    
Oh muchas gracias tengo ganas de verla
Para dejar un comentario Registrate! o.. eres ya usuario? Accede!