Oops.. Este post tiene los enlaces eliminados!

Identi revisa las denuncias de los usuarios en busca de enlaces eliminados que no dejan descargar los archivos, este mensaje te informa que este post que estas viendo tiene los enlaces eliminados.

Usa el Buscador

Por favor, te recomendamos que uses el buscador para encontrar más alternativas.

Super Policias Hot Fuzz Dvd Rip Latino

  • Categoría: Reciclaje
  • Publicado hace más de 4 años
Bits/(Pixel*Frame)               : 0.093

Stream size                      : 663 MiB (85%)

Writing library                  : x264 core 80 r1378+57 6f6b50a

Encoding settings                : cabac=0 / ref=1 / deblock=1:0:0 / analyse=0x3:0x113 / me=hex / subme=7 / psy=1 / psy_rd=1.0:0.0 / mixed_ref=0 / me_range=16 / chroma_me=1 / trellis=0 / 8x8dct=1 / cqm=0 / deadzone=21,11 / fast_pskip=1 / chroma_qp_offset=-2 / threads=3 / sliced_threads=0 / nr=0 / decimate=1 / mbaff=0 / constrained_intra=0 / bframes=0 / wpredp=2 / keyint=250 / keyint_min=25 / scenecut=40 / rc_lookahead=40 / rc=abr / mbtree=1 / bitrate=768 / ratetol=1.0 / qcomp=0.60 / qpmin=10 / qpmax=51 / qpstep=4 / ip_ratio=1.40 / aq=1:1.00


Audio

ID                               : 1

Format                           : MPEG Audio

Format version                   : Version 1

Format profile                   : Layer 3

Mode                             : Joint stereo

Mode extension                   : MS Stereo

Codec ID                         : 55

Codec ID/Hint                    : MP3

Duration                         : 2h 0mn

Bit rate mode                    : Constant

Bit rate                         : 128 Kbps

Channel(s)                       : 2 channels

Sampling rate                    : 44.1 KHz

Compression mode                 : Lossy

Stream size                      : 111 MiB (14%)

Alignment                        : Alignedt2fapid,0xzmycxeeivwbzy,tf8sjrcrm598byh,bwcf8sdfoox55vl,7z76qbrrgzegx39,gmvq696tvqi


Super Policias Hot Fuzz Dvd Rip Latino
5 Puntos Score: 5/10
Visitas: 1740 Favoritos: 3
Ver los usuarios que votaron...
15 Comentarios Super Policias Hot Fuzz Dvd Rip Latino
tienes la de estos dos donde estar en un mundo lleno de zombiens?
Buena peli gracias por compartir saludos!!!    
Cita toretto_jz: Mostrar

no te pases man, jajja que bueno esta tu avatar.


saludos rafa se ve buena la movie, por ahora todavia no me recargan los puntos, pero bueno despues te dejo, una pregunta rafa a ti si te llegan las notificaciones cuando te nombro en mi posts?
Buen aporte: @Rafadeth Arregla el Titulo de la peli es Hot Fuzz (con o)..Saludos
Se ve muy buena! Descargando...
Gracias!  
ahy otra que tanbn se lmasuper policias nadamas tanbien es comica aber si la encontraras amigo y lla pudieras subir ahy otra que nunca e encontrado se llama men in whit hombres de blanco comica tanbien si las encuentras te las encargo y gracias muy buen aporte
Gracias por la peli
exelente calidad
 
gracias muy buena
Gratamente sorprendido Rafa... Es bueno ver por estos lados un poco de cine europeo  
gros gracias por todo
La bajare muchas gracias
Muchas Gracias Amigo  
gracias men la peli esta muy buena
Parece que no funciona el link
Para dejar un comentario Registrate! o.. eres ya usuario? Accede!