Oops.. Este post tiene los enlaces eliminados!

Identi revisa las denuncias de los usuarios en busca de enlaces eliminados que no dejan descargar los archivos, este mensaje te informa que este post que estas viendo tiene los enlaces eliminados.

Usa el Buscador

Por favor, te recomendamos que uses el buscador para encontrar más alternativas.

Prometheus 2012 subtitulos grandes pegados

  • Categoría: Reciclaje
  • Publicado hace más de 4 años











Ficha Técnica Filmaffinity
TÍTULO ORIGINAL Prometheus
AÑO 2012
DURACIÓN 123 min.
PAÍS
Sección visual
[Estados Unidos]
DIRECTOR Ridley Scott
GUIÓN Damon Lindelof, John Spaihts
MÚSICA Marc Streitenfeld
FOTOGRAFÍA Dariusz Wolski
REPARTO Noomi Rapace, Michael Fassbender, Charlize Theron, Idris Elba, Guy Pearce, Logan Marshall-Green, Sean Harris, Rafe Spall, Emun Elliott, Benedict Wong, Kate Dickie, Patrick Wilson, Lucy Hutchinson, Giannina Facio
PRODUCTORA 20th Century Fox / Scott Free Productions / Dune Entertainment
GÉNERO Ciencia ficción. Terror | Extraterrestres. Aventura espacial. Precuela
Sinopsis
Un grupo de científicos y exploradores emprende un viaje espacial a un remoto planeta, una rara estrella recién descubierta, donde sus límites físicos y mentales serán puestos a prueba. El motivo de la misión es que los humanos creen que allá podrán encontrar la respuesta a las preguntas más profundas y al mayor de los misterios: el origen de la vida en la Tierra.



Bueno subo esta pelicula porque me gusto y ademas soy fan de al saga Aliens Aunque se que esta por Identi como unas 100 veces puesta esta es mi versión en DIVX con subtitulos grandes disfruten comenten y dejen puntos

General:up:
                 
Format                                   : AVI
Format/Info                              : Audio Video Interleave
File size                                : 711 MiB
Duration                                 : 1h 58mn
Overall bit rate                         : 837 Kbps

Video
ID                                       : 0
Format                                   : MPEG-4 Visual
Format settings, BVOP                    : No
Format settings, QPel                    : No
Format settings, GMC                     : No warppoints
Format settings, Matrix                  : Default (H.263)
Codec ID                                 : DX50
Codec ID/Hint                            : DivX 5
Duration                                 : 1h 58mn
Bit rate                                 : 699 Kbps
Width                                    : 720 pixels
Height                                   : 304 pixels
Display aspect ratio                     : 2.35:1
Frame rate                               : 25.000 fps
Color space                              : YUV
Chroma subsampling                       : 4:2:0
Bit depth                                : 8 bits
Scan type                                : Interlaced
Scan order                               : Bottom Field First
Compression mode                         : Lossy
Bits/(Pixel*Frame)                       : 0.128
Stream size                              : 594 MiB (84%)
Title                                    : Video
Writing library                          : DivX 2991

Audio
ID                                       : 1
Format                                   : MPEG Audio
Format version                           : Version 1
Format profile                           : Layer 3
Codec ID                                 : 55
Codec ID/Hint                            : MP3
Duration                                 : 1h 58mn
Bit rate mode                            : Constant
Bit rate                                 : 128 Kbps
Channel(s)                               : 2 channels
Sampling rate                            : 44.1 KHz
Compression mode                         : Lossy
Stream size                              : 109 MiB (15%)
Alignment                                : Split accross interleaves
Interleave, duration                     : 40 ms (1.00 video frame)
Interleave, preload duration             : 500 ms
Title                                    : Audio








http://www.mediafire.com/?bl769kx5aq7pqx8,33cax8bldl6370g,21swwbwj59fxzz2,1q4n8n8gecv9394,10bn6tit47xrykk,mrlshb19ybprd22,lnor3nqyy41163j,cv8xqe0sz33xsfc




Nosotras seguimos a RAFADETH  porque tu no?y detestamos el crap

Prometheus 2012 subtitulos grandes pegados
16 Puntos Score: 4/10
Visitas: 2298 Favoritos: 4
Ver los usuarios que votaron...
30 Comentarios Prometheus 2012 subtitulos grandes pegados
Bastante mala, argumento pobre poco desarrollado, los actores de bajo presupuesto es una especie de Alien el octabo pasajero en version barata, parece que Ridley Scott no sabe dirigir otra cosa que no sea Alien pero esta ves ni con sigourney weaver pudo contar : )  
que calidad es , thscreen? dvdrip??
Descargando, Gracias man
@epalada  es la calidad que hay nueva por identi y los sitios de descarga comunes se ve bien pero recordemos no sale aun el dvd full
Gracias por el aporte men  ... descargando
gracias por el aporte

 
Muchas gracias. Hace rato quer?
descargando gracias . para mi gusto muchos link .
No puedo dar puntos todav?
Gracias descargando,  
Cita lestad: Mostrar
Totalmente en desacuerdo desde mi gran punto de vista muy personal es una gran pelicula con un bien guion, fotografia buenisima y no creo que Michael Fassbender y Charlize Theron sean actores de bajo presupuesto de hecho todo lo contrario yo la recomiendo ampliamente.
gracias por compartir capo!!! buenisimo!!!
Cita alanmercer: Mostrar
Primero que nada gracias Rafadeth por compartir esta gran pel?
gracias rafa!! tengo muchas ganas de ver esta pelicula
gracias muy buena pelicula, espero que hagan la segunda parte  
@fredydarko gracias pero no esperaba verte por aqui en esta pelicula yo la fui a ver al cine y como que me quede un poco decepcionado pero esperover mas accion en la 2da parte
Muchas gracias!!! Creo que opinar sobre peliculas es algo dificil porque todos tenemos gustos diferentes, lo que no creo creo correcto es dar comentarios por una pelicula la cual se le tuvo que dedicar tiempo para poder postearla... y a mi gusto la peli es buena, al igual que el director y si piensas que chalize es actris de segunda vea monster con la que gano el oscar y luego vienes a opinar sobre temas que es bastante claro que no manejas...
Gracias por la peli..... muy buena
Excelente aporte man....lo bueno es que tiene subtitulos...bajando y gracias!!!!  
Muy buen aporte!!!! muchas gracias!!!
@pepemino @furdialesc

Pasen por aqui a descargar


@La Magra
@subidorvcd
Gracias por los puntos Rafin, buena movie esta de prometheus, gracias por el aporte, saludos Rafa!!!
@THECURE IGUALMENTE ta me paso a retirar man nos vemos depues gracias por los puntines
Cita Rafadeth: Mostrar


igual man ya le llego saludos
Gracias querido!!
Para dejar un comentario Registrate! o.. eres ya usuario? Accede!