Edguy fucking with Fire live in Brazil Rip





Bueno petardos ahi disfruten este material haber si dejan puntos o comentarios da igual 


01. Catch Of The Century
02. Sacrificar
03. Babilonia
04. Lavabo máquina del amor
05. Tierra del milagro
06. Tears Of A Mandrake
07. Vain Glory Opera
08. Drum Solo
09. Superheroes
10. Follando Con Fuego
11. Save Me
12. Mysteria
13. Out Of Control
14. Avantasia
15. King Of Fools
General
             
Format                           : MPEG-4
Codec ID                         : M4V 
File size                        : 551 MiB
Duration                         : 1h 50mn
Overall bit rate                 : 695 Kbps
widt                             : (Binary)
heig                             : (Binary)
Video
ID                               : 1
Format                           : AVC
Format/Info                      : Advanced Video Codec
Format profile                   : [email protected]
Format settings, CABAC           : No
Format settings, ReFrames        : 1 frame
Format settings, GOP             : M=1, N=60
Codec ID                         : avc1
Codec ID/Info                    : Advanced Video Coding
Duration                         : 1h 50mn
Bit rate mode                    : Variable
Bit rate                         : 597 Kbps
Maximum bit rate                 : 2 224 Kbps
Width                            : 640 pixels
Height                           : 358 pixels
Display aspect ratio             : 16:9
Frame rate mode                  : Constant
Frame rate                       : 29.970 fps
Color space                      : YUV
Chroma subsampling               : 4:2:0
Bit depth                        : 8 bits
Scan type                        : Progressive
Bits/(Pixel*Frame)               : 0.087
Stream size                      : 473 MiB (86%)
Audio
ID                               : 2
Format                           : AAC
Format/Info                      : Advanced Audio Codec
Format profile                   : LC
Codec ID                         : 40
Duration                         : 1h 50mn
Bit rate mode                    : Constant
Bit rate                         : 96.0 Kbps
Channel(s)                       : 2 channels
Channel positions                : Front: L R
Sampling rate                    : 44.1 KHz
Compression mode                 : Lossy
Stream size                      : 76.0 MiB (14%)



http://www.identi.li/index.php?action=profile;user=Rafadeth

Visiten mi perfil Mas de 70 Rips de autentico metal




Si no te gusta el metal toma y si eres crapero
Seguirme si les gustaron las minas seguro que si
y ademas si odias el crap en Identi.
Nosotras seguimos a RAFADETH  porque tu no?detestamos el crap
Metal en la sangre
Edguy fucking with Fire live in Brazil Rip
20 Puntos Score: 6.7/10
Visitas: 1893 Favoritos: 4
Ver los usuarios que votaron...
10 Comentarios Edguy fucking with Fire live in Brazil Rip
no hay disco como el vain glory opera......Tenes algo Heavenly - Riding Through Hell (Coming from the Sky)
@floxetina si tengo de heavenly  y si me gusta pero no se donde lo deje aunque me parecen un poco flojos los discos de heavenly gracias por los puntines la mas bella de identi

si los encuentro los subo aunque casi no me gusta mucho subir discos haber si unos de los contactos de identi lo sube
@Rafadeth si subime o conseguime Heavenly - Riding Through Hell (Coming from the Sky)
@floxetina tardara unos dias no se donde diablos los deje apenas puedo acomodar la basura que tengo en mi pc  
si yo le erro a los link subi tanto que ahora no que es cada uno....jajaja por suerte tengo todo en mi pc tambien
Muchas Gracias @Rafadeth Por Tremendo Aporte!!! Se Agradece
Alguien ha notado la cara de falsa de Katy Perry al final del Gif...?

Disculpa por el off-topic.  
Mierrr.... La foto de Sammet con polera de Sponge Bob me causar?
gracias a favs! deps lo bajo aguante el metal!
Gracias por tu esfuerzo en compartir este gran material!!! descargando para disfrutar del buen metal  
Para dejar un comentario Registrate! o.. eres ya usuario? Accede!