Kamelot One Cold Winter's Night Rip











Un saludo muy especial ami colega el mantecas gracias a el posteo este material espero sea de su agrado petardos Kulebros cometen dejen todos sus puntos de hoy



Visiten mi perfil Mas de 70 Rips de autentico metal 


"Introducción: Un Assassinio Molto Silenzioso"
" El Halo Negro "
"Soul Society"
"The Edge of Paradise"
"Center of the Universe"
"Noches de Arabia"
"Abandoned"
"Forever"
" Teclado en solitario "
"The Haunting (Somewhere in Time)"
"Moonlight"
"Cuando las luces están abajo"
"Elizabeth (partes I, II y III)"
"March of Mephisto"
"Karma"
" Drum Solo "
"Farewell"
"Curtain Call / Outro"
General

Format                           : MPEG-4
Codec ID                         : M4V 
File size                        : 402 MiB
Duration                         : 1h 30mn
Overall bit rate                 : 619 Kbps
widt                             : (Binary)
heig                             : (Binary)

Video
ID                               : 1
Format                           : AVC
Format/Info                      : Advanced Video Codec
Format profile                   : [email protected]
Format settings, CABAC           : No
Format settings, ReFrames        : 1 frame
Format settings, GOP             : M=1, N=58
Codec ID                         : avc1
Codec ID/Info                    : Advanced Video Coding
Duration                         : 1h 30mn
Bit rate mode                    : Variable
Bit rate                         : 521 Kbps
Maximum bit rate                 : 1 971 Kbps
Width                            : 480 pixels
Height                           : 360 pixels
Display aspect ratio             : 4:3
Frame rate mode                  : Constant
Frame rate                       : 25.000 fps
Color space                      : YUV
Chroma subsampling               : 4:2:0
Bit depth                        : 8 bits
Scan type                        : Progressive
Bits/(Pixel*Frame)               : 0.121
Stream size                      : 338 MiB (84%)

Audio
ID                               : 2
Format                           : AAC
Format/Info                      : Advanced Audio Codec
Format profile                   : LC
Codec ID                         : 40
Duration                         : 1h 30mn
Bit rate mode                    : Constant
Bit rate                         : 96.0 Kbps
Channel(s)                       : 2 channels
Channel positions                : Front: L R
Sampling rate                    : 44.1 KHz
Compression mode                 : Lossy
Stream size                      : 62.2 MiB (15%)

Un video muy lindo editado y subido por mi opinen



Si no te gusta el metal toma y si eres crapero
Seguirme si les gustaron las minas seguro que si
y ademas si odias el crap en Identi.
Nosotras seguimos a RAFADETH  porque tu no?detestamos el crap



 Metal en la sangre
@Innocence gracias por compartirme esta imagen reflexiva que todos los downloaders deberiamos apreciar
Kamelot One Cold Winter's Night Rip
5 Puntos Score: 5/10
Visitas: 2291 Favoritos: 2
Ver los usuarios que votaron...
10 Comentarios Kamelot One Cold Winter's Night Rip
CAAAAAAAAAANTEN, CARAJO!!!!!!
Aguante Kamelot, una de mis pocas bandas favoritas desde hace casi diez a?
Que buen dvd como suena ese doble bombo terrible gracias dps lo bajo!
@Innocence que paso con que crap me cae que un comentario mas asi y me paso al lado oscuro mis post ni jale tienen
@Rafadeth Fue un chiste tonto, Rafa. Si sabes que el post es excelente y un aporte de puta madre. No hace falta que te lo diga yo, como decis ac?
Odias a los craperos y subes tu video CRAP con susto al final  
@Dyckdack ajajajjaja un poco de humor no cae mal verdad
buena banda amigo buen aporte sigue asi
mucha gracias se aprecia mucho el esfuerzo. METAL IS FOREVER
Lo borraron era de esperarse despu?
Para dejar un comentario Registrate! o.. eres ya usuario? Accede!