Lujuria 10 Años Rock & Roll RIP












Lujuria es un grupo de heavy metal en castellano de Castilla y León formado en 1993 por cinco segovianos, consideran su estilo como Heavy Erotic Metal.
La mayoría de sus letras hablan de sexo, a veces en serio y a veces con tono humorístico, pero que no les ha impedido implicarse seriamente con toda clase de causas sociales.


1. Introducción
2. Lección de sexo (Video Clip)
3. Capítulo 1: Los Inicios
4. Lujuria (Video-Clip) [Unreleased]
5. Capítulo 2: Cuentos para Mayores
6. Estrella Porno del (Video Clip)
7. Capítulo 3: República Popular del Coito
8. Escuadrón 69 (Video-clip)
9. Capítulo 4: Sexo y Libertad
10. Capítulo 5: Sin Parar de Pecar
11. Jekill y Mrs. Hyde (Video Clip)
12. Capítulo 6: Enemigos de la castidad (La llegada de Lilith)
13. Lilith: (Video-Clip)
14. Capítulo 7: Anécdotas en Televisión
15. Capítulo 8: Lujuria en Directo
16. Corazón de Heavy Metal (Video-Clip)
17. Rollo Diez Años Por El Puto Rock 'n': Capítulo 9
18. Capítulo 10: Créditos y Saludos


Bueno chicos baboseando por ahi me aventé este rip en Divx ahi opinen sobre su calidad ya que uso Mp4 solo para consentirlos bueno ahí aporte este magnifico material de esta gran  banda de Heavy Metal Erótico disfruten comenten y dejen todos sus puntos:P

General
Complete name                            Lujuria 10 años de rock an roll.divx
Format                                   : AVI
Format/Info                              : Audio Video Interleave
File size                                : 638 MiB
Duration                                 : 56mn 28s
Overall bit rate                         : 1 579 Kbps

Video
ID                                       : 0
Format                                   : MPEG-4 Visual
Format settings, BVOP                    : No
Format settings, QPel                    : No
Format settings, GMC                     : No warppoints
Format settings, Matrix                  : Default (H.263)
Codec ID                                 : DX50
Codec ID/Hint                            : DivX 5
Duration                                 : 56mn 28s
Bit rate                                 : 1 250 Kbps
Width                                    : 720 pixels
Height                                   : 576 pixels
Display aspect ratio                     : 5:4
Frame rate                               : 25.000 fps
Standard                                 : PAL
Color space                              : YUV
Chroma subsampling                       : 4:2:0
Bit depth                                : 8 bits
Scan type                                : Interlaced
Scan order                               : Top Field First
Compression mode                         : Lossy
Bits/(Pixel*Frame)                       : 0.121
Stream size                              : 505 MiB (79%)
Title                                    : Video
Writing library                          : DivX 2991

Audio
ID                                       : 1
Format                                   : MPEG Audio
Format version                           : Version 1
Format profile                           : Layer 3
Codec ID                                 : 55
Codec ID/Hint                            : MP3
Duration                                 : 56mn 28s
Bit rate mode                            : Constant
Bit rate                                 : 320 Kbps
Channel(s)                               : 2 channels
Sampling rate                            : 48.0 KHz
Compression mode                         : Lossy
Stream size                              : 129 MiB (20%)
Alignment                                : Split accross interleaves
Interleave, duration                     : 40 ms (1.00 video frame)
Interleave, preload duration             : 500 ms
Title                                    : Audio




http://www.mediafire.com/?cojo3hqfgtdih4w,8f71bn5829arek8,rmrqsc0c5ecwvob,okhy3h3uwnehu2y,n86lk3w60f29xc6,wkx1autlklj8na3,ug8g1xs572hu1dp


Si no te gusta el metal toma y si eres crapero

Seguirme si les gustaron las minas seguro que si
y ademas si odias el crap en Identi.


Nosotras seguimos a RAFADETH  porque tu no?y detestamos el crap


Lujuria 10 Años Rock & Roll RIP
10 Puntos Score: 10/10
Visitas: 2082 Favoritos: 1
Ver los usuarios que votaron...
8 Comentarios Lujuria 10 Años Rock & Roll RIP
metalllll!!!
 yeaaaaaaa!!!
Este lo tengo en DVD Full! buenisimo!  
esto si que no los conozco, vamos a ver, muchas gracias rafa!!!
yeah!!!thank you Man  
gracias brother muy buen aporte
muy buen video este lo tengo desde hace tiempo, podrian subirlo en dvd full???? lo he buscado por toda la red y nada, bueno de hecho he buscado el primer dvd en directo y el de que regalaban en sus conciertos la ilustre ciudad de segovia o algo asi, solo tengo el del 20 aniversario en venezuela, si alguien lo quiere que me diga y lo subo, un saludo y gracias por el aporte!!!
reparalo por favor
Para dejar un comentario Registrate! o.. eres ya usuario? Accede!