Tierra Santa Apocalipsis Cd+Dvd RIP






Hola bueno no escribiré mas haber si esto tiene mas suerte que mis rips olvidados ya saben Tierra Santa HEAVY METAL

General
               
Format                           : AVI
Format/Info                      : Audio Video Interleave
File size                        : 235 MiB
Duration                         : 28mn 11s
Overall bit rate                 : 1 164 Kbps
Writing application              : MEncoder SVN-r30881(20100311-gcc4.3.3)
Writing library                  : MPlayer

Video
ID                               : 0
Format                           : MPEG-4 Visual
Format profile                   : Advanced [email protected]
Format settings, BVOP            : 2
Format settings, QPel            : No
Format settings, GMC             : No warppoints
Format settings, Matrix          : Default (H.263)
Codec ID                         : XVID
Codec ID/Hint                    : XviD
Duration                         : 28mn 11s
Bit rate                         : 1 024 Kbps
Width                            : 720 pixels
Height                           : 576 pixels
Display aspect ratio             : 5:4
Frame rate                       : 24.000 fps
Standard                         : PAL
Color space                      : YUV
Chroma subsampling               : 4:2:0
Bit depth                        : 8 bits
Scan type                        : Progressive
Compression mode                 : Lossy
Bits/(Pixel*Frame)               : 0.103
Stream size                      : 206 MiB (88%)
Writing library                  : XviD 1.2.1 (UTC 2008-12-04)

Audio
ID                               : 1
Format                           : MPEG Audio
Format version                   : Version 1
Format profile                   : Layer 3
Mode                             : Joint stereo
Mode extension                   : MS Stereo
Codec ID                         : 55
Codec ID/Hint                    : MP3
Duration                         : 28mn 11s
Bit rate mode                    : Constant
Bit rate                         : 128 Kbps
Channel(s)                       : 2 channels
Sampling rate                    : 44.1 KHz
Compression mode                 : Lossy
Delay relative to video          : 42ms
Stream size                      : 25.8 MiB (11%)
Alignment                        : Aligned on interleaves
Interleave, duration             : 26 ms (0.63 video frame)
Interleave, preload duration     : 522 ms

General
Format                           : AVI
Format/Info                      : Audio Video Interleave
File size                        : 119 MiB
Duration                         : 14mn 22s
Overall bit rate                 : 1 161 Kbps
Writing application              : MEncoder SVN-r30881(20100311-gcc4.3.3)
Writing library                  : MPlayer

Video
ID                               : 0
Format                           : MPEG-4 Visual
Format profile                   : Advanced [email protected]
Format settings, BVOP            : 2
Format settings, QPel            : No
Format settings, GMC             : No warppoints
Format settings, Matrix          : Default (H.263)
Codec ID                         : XVID
Codec ID/Hint                    : XviD
Duration                         : 14mn 22s
Bit rate                         : 1 020 Kbps
Width                            : 720 pixels
Height                           : 576 pixels
Display aspect ratio             : 5:4
Frame rate                       : 24.000 fps
Standard                         : PAL
Color space                      : YUV
Chroma subsampling               : 4:2:0
Bit depth                        : 8 bits
Scan type                        : Progressive
Compression mode                 : Lossy
Bits/(Pixel*Frame)               : 0.103
Stream size                      : 105 MiB (88%)
Writing library                  : XviD 1.2.1 (UTC 2008-12-04)

Audio
ID                               : 1
Format                           : MPEG Audio
Format version                   : Version 1
Format profile                   : Layer 3
Mode                             : Joint stereo
Mode extension                   : MS Stereo
Codec ID                         : 55
Codec ID/Hint                    : MP3
Duration                         : 14mn 22s
Bit rate mode                    : Constant
Bit rate                         : 128 Kbps
Channel(s)                       : 2 channels
Sampling rate                    : 44.1 KHz

Compression mode                 : Lossy
Delay relative to video          : 42ms
Stream size                      : 13.2 MiB (11%)
Alignment                        : Aligned on interleaves
Interleave, duration             : 26 ms (0.63 video frame)
Interleave, preload duration     : 522 ms

Un lindo video para desaburrirse:up:

CD 320 KBPS:up:

Si no te gusta el metal toma y si eres crapero
Seguirme si les gustaron las minas seguro que si
y ademas si odias el crap en Identi.
Nosotras seguimos a RAFADETH  porque tu no?y detestamos el crap

Tierra Santa Apocalipsis Cd+Dvd RIP
5 Puntos Score: 5/10
Visitas: 1547 Favoritos: 1
Ver los usuarios que votaron...
8 Comentarios Tierra Santa Apocalipsis Cd+Dvd RIP
te recomiendo que quites ese video... no est?
Yo solo entre para ver el video jaja     esta muy bueno y quien no lo haya visto es gay o no le gustan  las mujeres jaja es solo un video no tiene nada de porno al menos que sean raros algunos usuarios jaja!   Muy bueno el post  
saludos rafa, la verdad a esta banda nunca me llamo la atencion, que tal tocan?
Maldito Rafa!!!.. Me tocaste la fibra metalera mas delicada   ... Que gran banda la de estos espa?
excelente banda y jamas vi un recital,millones de gracias rafa
a estos algunos los llaman los "iron maiden" espa?
Tiene Razon No Esta Permitido   Da Miedo  
Podrias resubir el dvd por favor se te agradece
Para dejar un comentario Registrate! o.. eres ya usuario? Accede!