Hammerfall Live At Rocksound Festival Switzerland







Buenas noches petardos Kulebros haber si por este dejan puntos o mínimo comentarios y creo lo merece no es para menos Hammerfall un peso pesado de Heavy Metal actual de magnifica calidad que mas se puede decir metal Sueco 100% garantizado 

Si gustan de mas aca un bootleg de Hammerfall:up:
General
   
Format                           : AVI
Format/Info                      : Audio Video Interleave
File size                        : 379 MiB
Duration                         : 57mn 20s
Overall bit rate                 : 924 Kbps
Writing application              : MEncoder SVN-r30881(20100311-gcc4.3.3)
Writing library                  : MPlayer
Video
ID                               : 0
Format                           : AVC
Format/Info                      : Advanced Video Codec
Format profile                   : [email protected]
Format settings, CABAC           : No
Format settings, ReFrames        : 1 frame
Codec ID                         : avc1
Duration                         : 57mn 20s
Bit rate                         : 720 Kbps
Width                            : 630 pixels
Height                           : 360 pixels
Display aspect ratio             : 16:9
Frame rate                       : 25.000 fps
Color space                      : YUV
Chroma subsampling               : 4:2:0
Bit depth                        : 8 bits
Scan type                        : Progressive
Bits/(Pixel*Frame)               : 0.127
Stream size                      : 295 MiB (78%)
Writing library                  : x264 core 80 r1378+57 6f6b50a
Encoding settings                : cabac=0 / ref=1 / deblock=1:0:0 / analyse=0x3:0x113 / me=hex / subme=7 / psy=1 / psy_rd=1.0:0.0 / mixed_ref=0 / me_range=16 / chroma_me=1 / trellis=0 / 8x8dct=1 / cqm=0 / deadzone=21,11 / fast_pskip=1 / chroma_qp_offset=-2 / threads=3 / sliced_threads=0 / nr=0 / decimate=1 / mbaff=0 / constrained_intra=0 / bframes=0 / wpredp=2 / keyint=250 / keyint_min=25 / scenecut=40 / rc_lookahead=40 / rc=abr / mbtree=1 / bitrate=720 / ratetol=1.0 / qcomp=0.60 / qpmin=10 / qpmax=51 / qpstep=4 / ip_ratio=1.40 / aq=1:1.00
Audio
ID                               : 1
Format                           : MPEG Audio
Format version                   : Version 1
Format profile                   : Layer 3
Mode                             : Joint stereo
Codec ID                         : 55
Codec ID/Hint                    : MP3
Duration                         : 57mn 19s
Bit rate mode                    : Constant
Bit rate                         : 192 Kbps
Channel(s)                       : 2 channels
Sampling rate                    : 44.1 KHz
Compression mode                 : Lossy
Stream size                      : 78.7 MiB (21%)a
Alignment                        : Aligned on interleaves
Interleave, duration             : 26 ms (0.65 video frame)
Interleave, preload duration     : 522 ms
Writing library                  : LAME3.98



http://www.mediafire.com/?2af47zb2jthdxhu,znz3fxk844a7f7l,759v7gw92ae20bb


Si no te gusta el metal toma y si eres crapero
Seguirme si les gustaron las minas seguro que si
y ademas si odias el crap en Identi.

Nosotras seguimos a RAFADETH  porque tu no?detestamos el crap


Hammerfall Live At Rocksound Festival Switzerland
5 Puntos Score: 5/10
Visitas: 815 Favoritos: 1
Ver los usuarios que votaron...
8 Comentarios Hammerfall Live At Rocksound Festival Switzerland
No me gustan mucho estos manes, pero gracias por el aporte
vale compare,no tiene pass? cierto, es que la veo si tiene.
@saga_666 no ningun pass es un insulto poner pass a los downloderes
gracias por este aporte rafa me late esta banda bastante aun que ya les he perdido la pista, haber que tal siguen en vivo, te debo los puntos amigo no me los recargan todavia, buen aporte rafa sigue asi
Gracias por el aporte, no soy muy fan?
uno mas que me llevo, muchas gracias!!!  
no te quejes rafin con estos 5 te corono como mini idento en tu proximo post estrenas rango felicidades quejumbroso

un abrazo man
Bajando!!!   Muchas gracias!!!  no puedo dejar los puntos merecidos...soy nuevo en esto...abrazo.
Para dejar un comentario Registrate! o.. eres ya usuario? Accede!