Naruto 277 |PL|115MB|848x480|HD|MP4|SUB|ESP

Naruto 277 |PL|115MB|848x480|HD|MP4|SUB|ESP







RESUMEN

Naruto y el zorro tienen una conversación y el Zorro le dice que deje de ser ingenuo ya que no hay manera de que él pueda asumir el odio de una guerra entera y de Sasuke. Después de un flashback de Naruto y Sasuke, mientras están en la academia, Naruto entra en la jaula del Nueve Colas, y impulsa a los pilares que contienen a la bestia hacia abajo. Naruto entonces mira en el ojo de la bestia y lleno de confianza le dice que él va a hacer algo sobre la guerra y Sasuke.

INFORMACION DEL VIDEO Y AUDIO

Video: MPEG4 Video (H264) 848x480 23.81fps 598kbps [Video]
Audio: AAC 44100Hz stereo 95kbps [Audio]



INFORMACION GENERAL Y AVANZADA
Complete name                  : DS0560.mp4
Format                         : MPEG-4
Format profile                 : Base Media
Codec ID                       : isom
File size                      : 116 MiB
Duration                       : 23mn 9s
Overall bit rate mode          : Variable
Overall bit rate               : 697 Kbps
Encoded date                   : UTC 2012-08-29 13:05:26
Tagged date                    : UTC 2012-08-29 13:05:26

Video
ID                             : 1
Format                         : AVC
Format/Info                    : Advanced Video Codec
Format profile                 : [email protected]
Format settings, CABAC         : Yes
Format settings, ReFrames      : 3 frames
Codec ID                       : avc1
Codec ID/Info                  : Advanced Video Coding
Duration                       : 23mn 9s
Bit rate                       : 599 Kbps
Maximum bit rate               : 3 087 Kbps
Width                          : 848 pixels
Height                         : 480 pixels
Display aspect ratio           : 16:9
Frame rate mode                : Constant
Frame rate                     : 23.810 fps
Color space                    : YUV
Chroma subsampling             : 4:2:0
Bit depth                      : 8 bits
Scan type                      : Progressive
Bits/(Pixel*Frame)             : 0.062
Stream size                    : 99.1 MiB (86%)
Writing library                : x264 core 98 r1649 20cbe10
Encoding settings              : cabac=1 / ref=3 / deblock=1:0:0 / analyse=0x3:0x113 / me=hex / subme=7 / psy=1 / psy_rd=1.00:0.00 / mixed_ref=1 / me_range=16 / chroma_me=1 / trellis=1 / 8x8dct=1 / cqm=0 / deadzone=21,11 / fast_pskip=1 / chroma_qp_offset=-2 / threads=36 / sliced_threads=0 / nr=0 / decimate=1 / interlaced=0 / constrained_intra=0 / bframes=3 / b_pyramid=0 / b_adapt=1 / b_bias=0 / direct=1 / weightb=1 / weightp=2 / keyint=250 / keyint_min=25 / scenecut=40 / intra_refresh=0 / rc_lookahead=40 / rc=2pass / mbtree=1 / bitrate=599 / ratetol=1.0 / qcomp=0.60 / qpmin=10 / qpmax=51 / qpstep=4 / cplxblur=20.0 / qblur=0.5 / ip_ratio=1.40 / aq=1:1.00
Encoded date                   : UTC 2012-08-29 12:59:35
Tagged date                    : UTC 2012-08-29 13:05:28

Audio
ID                             : 2
Format                         : AAC
Format/Info                    : Advanced Audio Codec
Format profile                 : LC
Codec ID                       : 40
Duration                       : 23mn 9s
Bit rate mode                  : Variable
Bit rate                       : 96.0 Kbps
Maximum bit rate               : 110 Kbps
Channel(s)                     : 2 channels
Channel positions              : Front: L R
Sampling rate                  : 44.1 KHz
Compression mode               : Lossy
Delay relative to video        : -1mn 27s
Stream size                    : 15.9 MiB (14%)
Title                          : Imported with GPAC 0.4.6-DEV (internal rev. 5)
Encoded date                   : UTC 2012-08-29 13:05:27
Tagged date                    : UTC 2012-08-29 13:05:28














http://www.putlocker.com/file/977A5E60A6E55127

sin password


ANTES DE IRTE NO SE TE OLVIDE COMENTAR YA QUE COMENTAR ES AGRADECER
Naruto 277 |PL|115MB|848x480|HD|MP4|SUB|ESP
0 Puntos Score: 0/10
Visitas: 879 Favoritos: 0
6 Comentarios Naruto 277 |PL|115MB|848x480|HD|MP4|SUB|ESP
Cita bracamo: Mostrar
disfrutalo  
Este es el ultimo cap de la serie men? Gracias buen aporte  
murio mediafire , areglar porfa.
Cita LaloZion: Mostrar
bien rapido lo reportaron entonces si le pongo jdownloader se quejan y si le pongo enlace directo lo reportan en seguida dios mio
Cita LaloZion: Mostrar
de nada  
Para dejar un comentario Registrate! o.. eres ya usuario? Accede!