Tankard Rock Hard Festival 2007



 




Buenos gente disfruten este recital de los mas grandes maestros cerverzeros del Thrash disfruten comenten y dejen todos sus puntos



General
Complete name                            TANKARD ROCK HARD FESTIVAL 2007.divx
Format                                   : AVI
Format/Info                              : Audio Video Interleave
File size                                : 382 MiB
Duration                                 : 57mn 7s
Overall bit rate                         : 935 Kbps

Video
ID                                       : 0
Format                                   : MPEG-4 Visual
Format settings, BVOP                    : 2
Format settings, QPel                    : No
Format settings, GMC                     : No warppoints
Format settings, Matrix                  : Default (H.263)
Muxing mode                              : Packed bitstream
Codec ID                                 : DX50
Codec ID/Hint                            : DivX 5
Duration                                 : 57mn 7s
Bit rate                                 : 731 Kbps
Width                                    : 480 pixels
Height                                   : 360 pixels
Display aspect ratio                     : 4:3
Frame rate                               : 29.970 fps
Color space                              : YUV
Chroma subsampling                       : 4:2:0
Bit depth                                : 8 bits
Scan type                                : Progressive
Compression mode                         : Lossy
Bits/(Pixel*Frame)                       : 0.141
Stream size                              : 299 MiB (78%)
Title                                    : Video
Writing library                          : DivX 2991

Audio
ID                                       : 1
Format                                   : MPEG Audio
Format version                           : Version 1
Format profile                           : Layer 3
Codec ID                                 : 55
Codec ID/Hint                            : MP3
Duration                                 : 57mn 7s
Bit rate mode                            : Constant
Bit rate                                 : 192 Kbps
Channel(s)                               : 2 channels
Sampling rate                            : 44.1 KHz
Compression mode                         : Lossy
Stream size                              : 78.5 MiB (21%)
Alignment                                : Split accross interleaves
Interleave, duration                     : 33 ms (1.00 video frame)
Interleave, preload duration             : 500 ms
Title                                    : Audio




http://www.mediafire.com/?lfp9uawuof6h2s8,83g0r194xmb06c8,kgvr578ed43f794,d28nk83g363412b

Si no te gusta el metal toma y si eres crapero

Seguirme si les gustaron las minas seguro que si
y ademas si odias el crap en Identi.


Nosotras seguimos a RAFADETH  porque tu no?y detestamos el crap






Salud Metaleros

Tankard Rock Hard Festival 2007
10 Puntos Score: 5/10
Visitas: 1224 Favoritos: 1
Ver los usuarios que votaron...
6 Comentarios Tankard Rock Hard Festival 2007
thrash,cerveza y mosh .
tngo que ver alguna vez a estos compares
una de mis bandas favoritas
se agradece!!!
Por el momento paso Rafa, estos tios no son mi estilo.

Saludos  
Joya, me lo llevo.
buenisimo rafa, lo pase por alto este post,muchas gracias
Excelente!!!! Gracias chamigo... Lo que hizo la cerveza en la panza de Gerre no tiene nombre! Jaja!!
Para dejar un comentario Registrate! o.. eres ya usuario? Accede!