Grave Digger 25 to live Rip










Buenas noches petardos haber si logro alegrar su noche con este magnifico recital de  Grave Digger un grande del Power germano disfruten comenten y dejen todos sus valiosisimos puntos

General
Complete name                 25 to live Grave digger.mp4
Format                           : MPEG-4
Codec ID                         : M4V
File size                        : 487 MiB
Duration                         : 2h 28mn
Overall bit rate                 : 460 Kbps
widt                             : (Binary)
heig                             : (Binary)

Video
ID                               : 1
Format                           : AVC
Format/Info                      : Advanced Video Codec
Format profile                   : [email protected]
Format settings, CABAC           : No
Format settings, ReFrames        : 1 frame
Format settings, GOP             : M=1, N=44
Codec ID                         : avc1
Codec ID/Info                    : Advanced Video Coding
Duration                         : 2h 28mn
Bit rate mode                    : Variable
Bit rate                         : 361 Kbps
Maximum bit rate                 : 1 407 Kbps
Width                            : 494 pixels
Height                           : 360 pixels
Display aspect ratio             : 1.372
Frame rate mode                  : Constant
Frame rate                       : 25.000 fps
Color space                      : YUV
Chroma subsampling               : 4:2:0
Bit depth                        : 8 bits
Scan type                        : Progressive
Bits/(Pixel*Frame)               : 0.081
Stream size                      : 383 MiB (79%)

Audio
ID                               : 2
Format                           : AAC
Format/Info                      : Advanced Audio Codec
Format profile                   : LC
Codec ID                         : 40
Duration                         : 2h 28mn
Bit rate mode                    : Constant
Bit rate                         : 96.0 Kbps
Channel(s)                       : 2 channels
Channel positions                : Front: L R
Sampling rate                    : 44.1 KHz
Compression mode                 : Lossy
Stream size                      : 102 MiB (21%)




Si no te gusta el metal toma y si eres crapero
Seguirme si les gustaron las minas seguro que si
y ademas si odias el crap en Identi.
Nosotras seguimos a RAFADETH  porque tu no?y detestamos el crap

Grave Digger 25 to live Rip
0 Puntos Score: 0/10
Visitas: 705 Favoritos: 1
4 Comentarios Grave Digger 25 to live Rip
buen post rafin me quede sin puntos por hoy pero te sirven estos
Este DVD es de madre y el reportaje final es bastante interesante... Como gozaron esos brasile?
mi pana..de nuevo..eres grande  
Para dejar un comentario Registrate! o.. eres ya usuario? Accede!