Motörhead The Birthday Party Rip






Buenos muchachos antes de ir a distraerme como ya saben mi aporte diario bueno sin explicar mas ya saben  Motörhead eso es todo comenten y dejen TODO SUS PUNTOS DE HOY:P

General
Complete name                     The Birthday Party.mp4
Format                           : MPEG-4
Format profile                   : Base Media / Version 2
Codec ID                         : mp42
File size                        : 245 MiB
Duration                         : 59mn 51s
Overall bit rate                 : 572 Kbps
Encoded date                     : UTC 2011-08-17 09:02:08
Tagged date                      : UTC 2011-08-17 09:02:08
gsst                             : 0
gstd                             : 3591640
gssd                             : BBDC1BD04HH1346340891817031
gshh                             : o-o---preferred---
Video
ID                               : 1
Format                           : AVC
Format/Info                      : Advanced Video Codec
Format profile                   : [email protected]
Format settings, CABAC           : No
Format settings, ReFrames        : 1 frame
Format settings, GOP             : M=1, N=60
Codec ID                         : avc1
Codec ID/Info                    : Advanced Video Coding
Duration                         : 59mn 51s
Bit rate mode                    : Variable
Bit rate                         : 471 Kbps
Maximum bit rate                 : 1 886 Kbps
Width                            : 480 pixels
Height                           : 360 pixels
Display aspect ratio             : 4:3
Frame rate mode                  : Constant
Frame rate                       : 25.000 fps
Color space                      : YUV
Chroma subsampling               : 4:2:0
Bit depth                        : 8 bits
Scan type                        : Progressive
Bits/(Pixel*Frame)               : 0.109
Stream size                      : 202 MiB (82%)
Tagged date                      : UTC 2011-08-17 09:03:55

Audio
ID                               : 2
Format                           : AAC
Format/Info                      : Advanced Audio Codec
Format profile                   : LC
Codec ID                         : 40
Duration                         : 59mn 51s
Bit rate mode                    : Variable
Bit rate                         : 96.0 Kbps
Maximum bit rate                 : 118 Kbps
Channel(s)                       : 2 channels
Channel positions                : Front: L R
Sampling rate                    : 44.1 KHz
Compression mode                 : Lossy
Stream size                      : 41.1 MiB (17%)
Title                            : IsoMedia File Produced by Google, 5-11-2011
Encoded date                     : UTC 2011-08-17 09:02:09
Tagged date                      : UTC 2011-08-17 09:03:55



Si no te gusta el metal toma y si eres crapero
Seguirme si les gustaron las minas seguro que si
y ademas si odias el crap en Identi.
Nosotras seguimos a RAFADETH  porque tu no?detestamos el crap
Motörhead The Birthday Party Rip
8 Puntos Score: 4/10
Visitas: 920 Favoritos: 2
Ver los usuarios que votaron...
7 Comentarios Motörhead The Birthday Party Rip
descargando!!! bueno aporte mi viejo sigue as?
la parte dos se repite socio!!
excelente motorhead, viva Lemmy
por favor rafa cambia tu avatar que ese es demasiado cachondo se me alborota la lujuria con ese cuerpecito pon algo mas feo que no alborote la lujuria como el de molly
mira amigo te dejo esta para que te emociones de mi sofia vergara


QUE RAFA YA NO HABLAS
Para dejar un comentario Registrate! o.. eres ya usuario? Accede!