educap
"Por qué algo y no más bien nada?"

1991-Gente detrás de las paredes-Terror + arte



Vamos gente, reposteenla que necesito backupear este video antes de que se me termine de rayar el disco... creo que no la van a encontrar en linea ya...
O se creen que la subo porque soy bueno


















TITULO ORIGINAL: The People Under the Stairs
 TITULOS EN ESPAÑOL: La Gente Detras de las Paredes
 AÑO: 1991
 PAIS: USA
 DIRECTOR: Wes Craven
 GUION: Wes Craven
 GENERO: Terror, Misterio
 IDIOMA: Dual Audio: English - Español Latino
 REPARTO:
 Brandon Quintin Adams ... Poindexter 'Fool' Williams
 Everett McGill ... Man / Dad / Eldon Robeson
 Wendy Robie ... Woman; Mom
 A.J. Langer ... Alice
 Ving Rhames ... Leroy
 Sean Whalen ... Roach
 Bill Cobbs ... Grandpa Booker
 Kelly Jo Minter ... Ruby Williams
 Jeremy Roberts ... Spenser
 Conni Marie Brazelton ... Mary


SINOPSIS:
 Atrapado en el interior de una casa fortificada, un pobre niño se ve envuelto en una terrible pesadilla tras percatarse de la verdadera naturaleza de sus macabros habitantes. El chico se enfrenta a sádicos dispositivos de seguridad, conoce a una chica maltratada que permanece encerrada, y por fin descubre el secreto de las criaturas ocultas en el sótano de la casa.
 




General
Complete name                    : F:1991-LaGenteDetrasdelasParedes.avi
Format                           : AVI
Format/Info                      : Audio Video Interleave
File size                        : 832 MiB
Duration                         : 1h 41mn
Overall bit rate                 : 1 141 Kbps
Writing application              : Lavf52.39.1

Video
ID                               : 0
Format                           : xvid
Codec ID                         : xvid
Duration                         : 1h 41mn
Bit rate                         : 1 000 Kbps
Width                            : 718 pixels
Height                           : 548 pixels
Display aspect ratio             : 4:3
Frame rate                       : 24.000 fps
Bits/(Pixel*Frame)               : 0.106
Stream size                      : 729 MiB (88%)

Audio
ID                               : 1
Format                           : MPEG Audio
Format version                   : Version 1
Format profile                   : Layer 3
Mode                             : Joint stereo
Mode extension                   : MS Stereo
Codec ID                         : 55
Codec ID/Hint                    : MP3
Duration                         : 1h 41mn
Bit rate mode                    : Constant
Bit rate                         : 128 Kbps
Channel(s)                       : 2 channels
Sampling rate                    : 48.0 KHz
Compression mode                 : Lossy
Stream size                      : 93.3 MiB (11%)
Alignment                        : Aligned on interleaves
Interleave, duration             : 24 ms (0.58 video frame)
Interleave, preload duration     : 24 ms
Writing library                  : LAME3.96.1


Esta la peli entera en 8 partes, si no la quieren bajar





Avi xvid
Latino!
700 MB
PutLocker
Uploader educap











Enlaces De Descarga

educap









1991-Gente detrás de las paredes-Terror + arte
3 Puntos Score: 3/10
Visitas: 2575 Favoritos: 3
Ver los usuarios que votaron...
11 Comentarios 1991-Gente detrás de las paredes-Terror + arte
Esta peli..marco mi infancia..Gracias  
Gracias amigo  
van +3 amigo  
Cita MxBartrixg: Mostrar
y ademas es linda peli  
@kenijag gracias amigo por pasar  
Cita mcoraq: Mostrar
agradecido  
@educap Amigo algo pasa con el archivo -9- checalo plis al  parecer no esta disponible si puedes subir esa parte a otro servidor para poder ver la movie completa ,, agradecido de antemano buen aporte que estes bien
Cita J.ARMANDO: Mostrar
hola amigo no te preocupes, la pagina esta en mantenimiento, solo espera unas horas y vuelve a intentarlo, veras que puedes....
 
se agradece amigo descargando la parte 9  
Hola como es eso del audio dual? de la pel?
Cita nando640: Mostrar
ah gracias , consulta? uso j downloder y en el archivo n?
Volvela a subir !!!
Para dejar un comentario Registrate! o.. eres ya usuario? Accede!