Knights Live Axel Rudi Pell Rip








Esta divido en 2 partes las cuales quise unir pero quedaba mas pesado y contenía unos ligeros defectos de audio así que deicidi dejarlo partido en 2 gracias por el aporte a mi muy querido colega el Mantecas de me paso este magnifico material hasta yo lo quería es un show en vivo realizado en el Zeche en la ciudad natal de Pell de Bochum , Alemania en el 5 de mayo de 2002, durante el 2002 Shadow Zone tour.



Disfruten comenten y dejen puntos TODOS SUS PUNTOS:mad:

BYE PETARDOS KULEBROS


1. Edge of the World
2. Nasty Reputation
3. Tear Down the Walls
4. Medley: Masquerade Ball / Casbah / Drum Solo / Stargazer / Casbah
5. Siga la señal
6. Fool Fool
7. Carrusel
8. The Clown is Dead
9. Call Her Princess
10. Ojos de serpiente
11. Guerrero



General
Complete name                   Axel Rudi Pell - Knights Live p1.mp4
Format                           : MPEG-4
Format profile                   : Base Media / Version 2
Codec ID                         : mp42
File size                        : 262 MiB
Duration                         : 53mn 49s
Overall bit rate                 : 681 Kbps


Video
ID                               : 1
Format                           : AVC
Format/Info                      : Advanced Video Codec
Format profile                   : [email protected]
Format settings, CABAC           : No
Format settings, ReFrames        : 1 frame
Format settings, GOP             : M=1, N=60
Codec ID                         : avc1
Codec ID/Info                    : Advanced Video Coding
Duration                         : 53mn 49s
Bit rate mode                    : Variable
Bit rate                         : 583 Kbps
Maximum bit rate                 : 1 414 Kbps
Width                            : 490 pixels
Height                           : 360 pixels
Display aspect ratio             : 4:3
Frame rate mode                  : Constant
Frame rate                       : 25.000 fps
Color space                      : YUV
Chroma subsampling               : 4:2:0
Bit depth                        : 8 bits
Scan type                        : Progressive
Bits/(Pixel*Frame)               : 0.132
Stream size                      : 224 MiB (86%)

ID                               : 2
Format                           : AAC
Format/Info                      : Advanced Audio Codec
Format profile                   : LC
Codec ID                         : 40
Duration                         : 53mn 49s
Bit rate mode                    : Variable
Bit rate                         : 96.0 Kbps
Maximum bit rate                 : 117 Kbps
Channel(s)                       : 2 channels
Channel positions                : Front: L R
Sampling rate                    : 44.1 KHz
Compression mode                 : Lossy
Stream size                      : 37.0 MiB (14%)


Parte 2


General
Complete name                   Axel Rudi Pell - Knights Live p2.mp4
Format                           : MPEG-4
Format profile                   : Base Media / Version 2
Codec ID                         : mp42
File size                        : 286 MiB
Duration                         : 1h 1mn
Overall bit rate                 : 649 Kbps


Video
ID                               : 1
Format                           : AVC
Format/Info                      : Advanced Video Codec
Format profile                   : [email protected]
Format settings, CABAC           : No
Format settings, ReFrames        : 1 frame
Codec ID                         : avc1
Codec ID/Info                    : Advanced Video Coding
Duration                         : 1h 1mn
Bit rate mode                    : Variable
Bit rate                         : 550 Kbps
Maximum bit rate                 : 1 832 Kbps
Width                            : 490 pixels
Height                           : 360 pixels
Display aspect ratio             : 4:3
Frame rate mode                  : Constant
Frame rate                       : 25.000 fps
Color space                      : YUV
Chroma subsampling               : 4:2:0
Bit depth                        : 8 bits
Scan type                        : Progressive
Bits/(Pixel*Frame)               : 0.125
Stream size                      : 242 MiB (85%)

Audio
ID                               : 2
Format                           : AAC
Format/Info                      : Advanced Audio Codec
Format profile                   : LC
Codec ID                         : 40
Duration                         : 1h 1mn
Bit rate mode                    : Variable
Bit rate                         : 96.0 Kbps
Maximum bit rate                 : 162 Kbps
Channel(s)                       : 2 channels
Channel positions                : Front: L R
Sampling rate                    : 44.1 KHz
Compression mode                 : Lossy
Stream size                      : 42.3 MiB (15%)








Si no te gusta el metal toma y si eres crapero


Seguirme si les gustaron las minas seguro que si
y ademas si odias el crap en Identi.



Nosotras seguimos a RAFADETH  porque tu no?y detestamos el crap





Knights Live Axel Rudi Pell Rip
13 Puntos Score: 6.5/10
Visitas: 640 Favoritos: 2
Ver los usuarios que votaron...
8 Comentarios Knights Live Axel Rudi Pell Rip
sabes que jamas lo escuhe, de nombre si lo conozco, vamos a ver que tal esta, gracias rafa
@fredydarko magnifico hard rock heavy metal aveces power en fin que puedo decir magnifico Axel rudi pell su musica esta inspirada en DIO
Sacaste trago Rafa!!!!   ... En esta clase de metal, Axel es y seguira siendo el mejor para mi gusto  

Fool fool, mi cancion favorita en esta presentaci?
Esto es espectacular, Axel es un ?
EXCELENTE GUITARRISTA UN VIRTUOSO POCO VALORADO PERO ES UN GENIO DE TODAS FORMAS TU AMIGO EL MANTECAS SI QUE TIENE BUEN MATERIAL IGUAL QUE LOS TUYOS RAFA. VISITA MI POST AMIGO
http://www.identi.li/index.php?topic=116450
Master Rudi Pell, excelente !! Nunca deja de asombrar sus discos aunque los ultimos dos discos ya han sido mas de lo mismo .. pero muy buenos   Grandes vocales, Jeff, Rob, Johnny pff, estoy proximo a postear los discos de Steler ... te aviso en cuando la tenga ... Saludos y Grande aporte   @Rafadeth GRACIAS !!
@Rafadeth Se me pasaba si de casualidad tuvieras One Night Live (2010) de axel , y optaras por postearlo no te olvideis de avisarme   ... Gracias !!  
Para dejar un comentario Registrate! o.. eres ya usuario? Accede!