Iron Maiden Live After Death WST 1985 RIP









Buenas noches a quienes saben de esto se que no se podran resistir ante esta pequeña gran joya de la historia de rock sin duda Iron Maiden un infaltable si deberas eres un metalhead  World Slavery Tour 1985:up:
Haber si con esto minimo me gano unos 5 puntos ya que mis post pasan sin pena ni gloria
Info

General
Complete name                    Live After Death  Iron Maiden.mp4
Format                           : MPEG-4
Format profile                   : Base Media / Version 2
Codec ID                         : mp42
File size                        : 389 MiB
Duration                         : 1h 28mn
Overall bit rate                 : 611 Kbps
Encoded date                     : UTC 2011-05-19 16:54:49
Tagged date                      : UTC 2011-05-19 16:54:49
gsst                             : 0
gstd                             : 5337680
gssd                             : BBDC1BD06HH1346127119884126
gshh                             : o-o---preferred----pbc1---v7---
Video
ID                               : 1
Format                           : AVC
Format/Info                      : Advanced Video Codec
Format profile                   : [email protected]
Format settings, CABAC           : No
Format settings, ReFrames        : 1 frame
Format settings, GOP             : M=1, N=60
Codec ID                         : avc1
Codec ID/Info                    : Advanced Video Coding
Duration                         : 1h 28mn
Bit rate mode                    : Variable
Bit rate                         : 511 Kbps
Maximum bit rate                 : 1 273 Kbps
Width                            : 480 pixels
Height                           : 360 pixels
Display aspect ratio             : 4:3
Frame rate mode                  : Constant
Frame rate                       : 25.000 fps
Color space                      : YUV
Chroma subsampling               : 4:2:0
Bit depth                        : 8 bits
Scan type                        : Progressive
Bits/(Pixel*Frame)               : 0.118
Stream size                      : 325 MiB (84%)
Tagged date                      : UTC 2011-05-19 16:57:34

Audio
ID                               : 2
Format                           : AAC
Format/Info                      : Advanced Audio Codec
Format profile                   : LC
Codec ID                         : 40
Duration                         : 1h 28mn
Bit rate mode                    : Variable
Bit rate                         : 96.0 Kbps
Maximum bit rate                 : 117 Kbps
Channel(s)                       : 2 channels
Channel positions                : Front: L R
Sampling rate                    : 44.1 KHz
Compression mode                 : Lossy
Stream size                      : 61.1 MiB (16%)
Encoded date                     : UTC 2011-05-19 16:54:58
Tagged date                      : UTC 2011-05-19 16:57:34
1. Default DirectSound Device
2. VMR9 - Renderless mode
3. Gretech Audio
4. Gretech Video
5. ffdshow Audio Decoder
6. Gretech MP4 Source
Input Type : AVC1(GVC)
Input Size : 480 x 360
Output Type : YUY2
Output Size : 480 x 360
FrameRate(Frame/sec) : 0.00 (25.00)
SampleRate(Sample/sec) : 44100
BitRate(Bit/sample) : 16
Channels : 2
KBitRate(KBit/sec) : 1411


Si no te gusta el metal toma y si eres crapero
Seguirme si les gustaron las minas seguro que si
y ademas si odias el crap en Identi.
Nosotras seguimos a RAFADETH  porque tu no?y detestamos el crap
El crap es mas agresivo y se multiplica estamos en guerra  pero ganaremos

Iron Maiden Live After Death WST 1985 RIP
13 Puntos Score: 4.3/10
Visitas: 1538 Favoritos: 1
Ver los usuarios que votaron...
10 Comentarios Iron Maiden Live After Death WST 1985 RIP
Grande Rafita!!!   .... Pensar que yo tenia el VHS cuando recien sali?
Epico ese conciertaco!
@Edelweiss yo tambien lo alquilaban en el video club!!!  gracias rafa !!!
muy bueno y gracias la pena es que mi rango no me permite puntuar ..
Sube uno de metallica reciennte quiero uno D:
buenisimooo!!!! descargando. Gracias por el aporte  
 
siiiiii uno de sus mejores y emocionantes conciertos de la epoca
uno de los mejores en vivo ke vi en mi vida!!!
SUPER CONCIERTO DE LO MAS MEMORABLE DE MAIDEN EN VIVO POR LO MENOS DE LOS OFICIALES
vale compadre
otro excelente aporte
Para dejar un comentario Registrate! o.. eres ya usuario? Accede!