Tenacius D 2012 del Rock am Ring RIP














En 1994 tuvieron lugar en Los Ángeles dos acontecimientos que sacudieron la tierra: el terremoto de Northridge y el nacimiento de Tenacious D, la banda liderada por Jack Black y Kyle Gass. 

Los dos se conocieron cuando eran miembros de la Actor?s Gang, una compañía de teatro de Los Ángeles fundada por Tim Robbins, y allí fue donde ambos descubrieron su amor por el rock and roll. Desde su primera actuación en el Al?s Bar de Los Ángeles, donde interpretaron su única canción, Tribute, hasta su revelación como la autoproclamada Mejor Banda de la Tierra, The D, como los conocen sus seguidores, han encantado a todo el que podido escucharlos. Aunque Black y Gass describen Tenacious D in The Pick of Destiny como una autobiografía, se han tomado ciertas libertades, pero claro, ¿por qué no iban a hacerlo? al fin y al cabo se trata de The D, los trovadores más irreverentes dentro de los reverentes. 

Este concierto grabado hace muy pocos días en el Festival Rock am Ring, los muestra presentando temas de su último álbum Rize of the Fenix.

Buenos petardos Kulebros os dejo este magnifico recital con la mas grande banda de Rock de todos los tiempos TENACIUS D 
comenten disfruten y dejen todos sus puntos:P
INFO
General
Complete name   Tenacious D Rock am Ring 2012.mp4
Format                           : MPEG-4
Format profile                   : Base Media / Version 2
Codec ID                         : mp42
File size                        : 306 MiB
Duration                         : 1h 8mn
Overall bit rate                 : 628 Kbps
Encoded date                     : UTC 2012-06-03 01:38:57
Tagged date                      : UTC 2012-06-03 01:38:57
gsst                             : 0
gstd                             : 4088453
gssd                             : BADC21861HH1346109850691551
gshh                             : o-o---preferred---dfw06s15---v21---nonxt2.c.youtube.com
Video
ID                               : 1
Format                           : AVC
Format/Info                      : Advanced Video Codec
Format profile                   : [email protected]
Format settings, CABAC           : No
Format settings, ReFrames        : 1 frame
Format settings, GOP             : M=1, N=60
Codec ID                         : avc1
Codec ID/Info                    : Advanced Video Coding
Duration                         : 1h 8mn
Bit rate mode                    : Variable
Bit rate                         : 530 Kbps
Maximum bit rate                 : 1 909 Kbps
Width                            : 640 pixels
Height                           : 360 pixels
Display aspect ratio             : 16:9
Frame rate mode                  : Constant
Frame rate                       : 15.000 fps
Color space                      : YUV
Chroma subsampling               : 4:2:0
Bit depth                        : 8 bits
Scan type                        : Progressive
Bits/(Pixel*Frame)               : 0.153
Stream size                      : 258 MiB (84%)
Tagged date                      : UTC 2012-06-03 01:38:58
Audio
ID                               : 2
Format                           : AAC
Format/Info                      : Advanced Audio Codec
Format profile                   : LC
Codec ID                         : 40
Duration                         : 1h 8mn
Bit rate mode                    : Variable
Bit rate                         : 96.0 Kbps
Maximum bit rate                 : 116 Kbps
Channel(s)                       : 2 channels
Channel positions                : Front: L R
Sampling rate                    : 44.1 KHz
Compression mode                 : Lossy
Stream size                      : 46.8 MiB (15%)
Title                            : IsoMedia File Produced by Google, 5-11-2011
Encoded date                     : UTC 2012-06-03 01:38:57
Tagged date                      : UTC 2012-06-03 01:38:58
*** DIRECTSHOW FILTER LIST ***
1. Default DirectSound Device
2. VMR9 - Renderless mode
3. Gretech Audio
4. Gretech Video
5. ffdshow Audio Decoder
6. Gretech MP4 Source
*** VIDEO INFO ***
Input Type : AVC1(GVC)
Input Size : 640 x 360
Output Type : YUY2
Output Size : 640 x 360
FrameRate(Frame/sec) : 0.00 (15.00)
*** AUDIO INFO ***
SampleRate(Sample/sec) : 44100
BitRate(Bit/sample) : 16
Channels : 2
KBitRate(KBit/sec) : 1411

Rize of the Fenix 
Low Hangin? Fruit 
Senorita 
Deth Starr 
Roadie 
Throw Down 
Saxaboom 
Kielbasa 
Kickapoo 
The Metal 
Beelzeboss (The Final Showdown) 
Pinball Wizard 
Fuck Her Gently 
Tribute 
Double Team




Si no te gusta el metal toma y si eres crapero
Seguirme si les gustaron las minas seguro que si
y ademas si odias el crap en Identi.
Nosotras seguimos a RAFADETH  porque tu no?detestamos el crap
El crap es mas agresivo y se multiplica estamos en guerra  pero ganaremos




 


Tenacius D 2012 del Rock am Ring RIP
5 Puntos Score: 5/10
Visitas: 2529 Favoritos: 8
Ver los usuarios que votaron...
30 Comentarios Tenacius D 2012 del Rock am Ring RIP
No es por joder, pero siempre me parecio q el pelado no tiene mucha pinta de rocker.
El rock se lleva en el coraz?
@pathaz ciertos esos gordos se la rifan jajaja
que bueno no sabia que daban recitales ,muchas gracias rafa
Muy buena la peli el otro dia la vi, totalmente recomendada!
que es crap no mamen    
Cita pathaz: Mostrar
@dbz23 CRAP todos la hacemos diario pero aqu?
yo pensaba que nomas eran de una  pelicula nunca me imagine que de verdad cantaban  
@Rafadeth  jajajajajajajaja pero que demonios es crap jajajajajaj me dejas en las mismas
@Pinchecabr @Zodiaco @pshyco @davidrojas @fredydarko  chicos le pueden explicar que es crap al muchacho  
agradecere los comentarios @dbz23
@dbz23 crap es basura o algo que no aporta nada al comunidad ejemplo un post de noticias, un post de puras imagenes, un post de videos de youtube y si  pruebas de campo entra al pagina de la letra T! y todo lo que ves posteado eso es crap Nota: si a alguien  ofendi con mi comentario pido disculpas  pero para mi eso es crap
Cita dbz23: Mostrar
En resumen cuando un post es demasiado pobre, pero ojo puede haber una ecepcion si es pobre en como esta armado, pero el aporte es bueno eso no es crap...
@pshyco @Zodiaco  gracias vatos, si pense que seria algo asi  pero queria estar seguro  
Cita dbz23: Mostrar
Esta bien preguntar, algunas veces cuando sos novato en algo y preguntas no te quieren contestar...
En Fin saludos @dbz23 !
Cita pathaz: Mostrar
che alguien tiene la pelicula esta en dvdrip latino
la necesito graciasa
 
Que bueno! Descargando, muchas gracias.
@dbz23 crap es un post feo hecho asi nomas y que no te deja nada. Como un video de una cancion sin nada mas por ejemplo
gracias mi pana..
Gracias por el aporte
esta muy bueno tenacious D.. muy buen post   --- este recital lo vi de  aca :



pero me gustaria q tenga subtitulos para las partes q hablan... ha modifica el titulo te falto la O ..
gracias por el aporte ...
Gracias muy buen aporte
graxs bro por compartir esto  
muchas gracias por tu aporte, la voy a ver. queria saber si alguien tiene la tenacius d que salio en 2006 o 2007 nose muy bien, se las encargo por favor. saludos
Fijate que parece que te eliminaron la carpeta  
Cita davidrojas: Mostrar
pero que dices
Cita pathaz: Mostrar
Para dejar un comentario Registrate! o.. eres ya usuario? Accede!