Dark.City.DVDRip.1998.Español.Ingles

Dark.City.DVDRip.1998







Bueno aca les traigo una pelicula, quiza un tanto desconocida, pero muy interesante para mi. John Murdoch se despierta a medianoche tumbado en la bañera de un hotel, aquejado de una grave amnesia que le impide recordar su pasado, exceptuando pequeños retazos de un idílico y soleado lugar donde supuestamente pasó su niñez. Más tarde descubrirá que la falta de recuerdos es el menor de sus problemas, ya que por una parte es perseguido por la policía acusado de ser un asesino en serie de prostitutas, y por otra descubre que la ciudad es manipulada en las sombras por un misterioso grupo llamado 'Los Ocultos'.

Realmente es una pelicula muy interesante, es extraña eso si, pero creo que vale la pena que la vean. Esta pelicula la baje del emule con mucha paciencia, y obviamente tengo que cumplir el deber de redistribuirla

General
Complete name                            : D:emuleIncomingDark.City.(1998).(Spanish.English).BRrip.XviD-AC3.by.Eugen.(filibusteros.com).avi
Format                                   : AVI
Format/Info                              : Audio Video Interleave
File size                                : 1.62 GiB
Duration                                 : 1h 36mn
Overall bit rate                         : 2 408 Kbps
Movie name                               : Drak City (1998)[BRRIP][XviD-AC3][spa-eng] By Eugen
Writing application                      : VirtualDubMod 1.5.10.2 (build 2540/release)
Writing library                          : VirtualDubMod build 2540/release

Video
ID                                       : 0
Format                                   : MPEG-4 Visual
Format profile                           : Advanced [email protected]
Format settings, BVOP                    : 2
Format settings, QPel                    : No
Format settings, GMC                     : No warppoints
Format settings, Matrix                  : Default (H.263)
Codec ID                                 : XVID
Codec ID/Hint                            : XviD
Duration                                 : 1h 36mn
Bit rate                                 : 1 881 Kbps
Width                                    : 720 pixels
Height                                   : 304 pixels
Display aspect ratio                     : 2.35:1
Frame rate                               : 25.000 fps
Original frame rate                      : 23.976 fps
Color space                              : YUV
Chroma subsampling                       : 4:2:0
Bit depth                                : 8 bits
Scan type                                : Progressive
Compression mode                         : Lossy
Bits/(Pixel*Frame)                       : 0.344
Stream size                              : 1.27 GiB (78%)
Writing library                          : XviD 58

Audio #1
ID                                       : 1
Format                                   : AC-3
Format/Info                              : Audio Coding 3
Mode extension                           : CM (complete main)
Format settings, Endianness              : Big
Codec ID                                 : 2000
Duration                                 : 1h 36mn
Bit rate mode                            : Constant
Bit rate                                 : 256 Kbps
Channel(s)                               : 6 channels
Channel positions                        : Front: L C R, Side: L R, LFE
Sampling rate                            : 48.0 KHz
Bit depth                                : 16 bits
Compression mode                         : Lossy
Stream size                              : 176 MiB (11%)
Alignment                                : Split accross interleaves
Interleave, duration                     : 40 ms (1.00 video frame)
Interleave, preload duration             : 500 ms
Title                                    : Spanish

Audio #2
ID                                       : 2
Format                                   : AC-3
Format/Info                              : Audio Coding 3
Mode extension                           : CM (complete main)
Format settings, Endianness              : Big
Codec ID                                 : 2000
Duration                                 : 1h 36mn
Bit rate mode                            : Constant
Bit rate                                 : 256 Kbps
Channel(s)                               : 6 channels
Channel positions                        : Front: L C R, Side: L R, LFE
Sampling rate                            : 48.0 KHz
Bit depth                                : 16 bits
Compression mode                         : Lossy
Stream size                              : 176 MiB (11%)
Alignment                                : Split accross interleaves
Interleave, duration                     : 40 ms (1.00 video frame)
Interleave, preload duration             : 500 ms
Title                                    : English










Enlaces De Descarga


porreyxeneise
Dark.City.DVDRip.1998.Español.Ingles
15 Puntos Score: 7.5/10
Visitas: 2664 Favoritos: 7
Ver los usuarios que votaron...
17 Comentarios Dark.City.DVDRip.1998.Español.Ingles
matrix le chore?
QUE EXCELENTE APORTE AMIGO.. UNA DE MIS PELIS FAVORITAS..
Se ve interesante, pero xq con tanto peso man??? Deberias resaltar los datos importates. Ahhh es un .Avi Dual !!! As?
@edu_a77aque77 Se la verdad que a mi me gusto la pelicula, y es verdad matrix se copio algo de esta jajaja

@joseamat Pesa asi por la calidad, ademas esta en ingles y espa?
Dentro de poco la resubo
buuuu....links ca?
Links actualizados!!
GRACIAS HERMANO!! k bueno k los resubiste, habia buscado la peli x todas partes y nada, pero en ningun lugar, me resingue por mas de 1 A?
reyxeneise no estan los links no entra el el enlace, porfavor s?
Gracias por la subida maestro, pero una consulta sobre el audio: es espa?
gracias amigo por la pelicula y por tomarte el tiempo para subirla
la busque por todos lados pero no la encontraba gracias perro
el tercer link no descarga solo dice mirror mega
Para dejar un comentario Registrate! o.. eres ya usuario? Accede!