Inteligencia Artificial DVDRip V.O.S.E. Rmvb

Inteligencia Artificial DVDRip V.O.S.E. Rmvb








Inteligencia artificial es una película estadounidense de 2001 dirigida por Steven Spielberg. La película está basada en el relato de ciencia ficción Los superjuguetes duran todo el verano de Brian Aldiss, e incorpora elementos de la obra italiana Las aventuras de Pinocho.

Sinopsis

En un futuro en que los casquetes polares se han fundido, debido al efecto invernadero, y ciudades como Ámsterdam, Venecia o Nueva York han desaparecido bajo las aguas, reduciendo la superficie habitable, la natalidad se ha restringido. La industria del robot se ha desarrollado espectacularmente, estableciendo su próximo objetivo en hacerlos capaces de sentir emociones. David es el prototipo de niño-robot, dotado de inteligencia artificial y capaz de amar como un hijo por su madre. Es entregado a Henry, empleado de la empresa que lo creó, casado con Mónica y padre de Martin, criogenizado en un hospital a la espera de que se descubra una cura. El contrato estipula que si decide deshacerse de David, habrá de devolverlo a la empresa para destruirlo. Cuando David descubre que los humanos mueren y expresa a Mónica su angustia por quedarse solo, ésta le da por compañero a Teddy, un superjuguete, un osito de peluche con inteligencia artificial. Pero el verdadero drama comienza cuando Martin es curado y vuelve a casa. La convivencia entre David y Martin se complica y Mónica, que quiere a David, en vez de devolverlo a la empresa, lo abandona con la esperanza de que sobreviva junto a otros robots abandonados. El pequeño David mitiga su dolor con la ilusión de que se cumpla la historia de Pinocho, de que el Hada Azul lo convierta en un niño real y así Mónica lo quiera tanto como a Martin.


Producción

La película fue concebida por Stanley Kubrick, quien trabajó largo tiempo con un grupo de escritores; pero debido al fallecimiento de Kubrick, y a que estuvo durante sus últimos años de vida envuelto en el proyecto de Eyes Wide Shut ?su última película?, no llegó a dirigirla.1 En los créditos Kubrick figura como uno de los productores, y la película fue dedicada a él.

En la película aparecen las Torres Gemelas, pese a haber dejado de existir desde los atentados del 11 de septiembre de 2001, pero al contrario de lo que ocurrió con la película de Spiderman, en esta se decidió mantenerlas en el film que se proyectaría finalmente en los cines.
Reparto

    Haley Joel Osment - David Swinton
    Frances O'Connor - Monica Swinton
    Sam Robards - Henry Swinton
    Jake Thomas - Martin Swinton
    Jude Law - Gigolo Joe
    William Hurt - Prof. Hobby


Fuente:

http://es.wikipedia.org/wiki/Inteligencia_artificial_%28pel%C3%ADcula%29


***************************************************************************************

4RT1f1f14L1NT3ll163NC3.rmvb
Format                                   : RealMedia
File size                                : 452 MiB
Duration                                 : 2h 25mn
Overall bit rate                         : 428 Kbps

Video
ID                                       : 1
Format                                   : RealVideo 4
Codec ID                                 : RV40
Codec ID/Info                            : Based on AVC (H.264), Real Player 9
Duration                                 : 2h 25mn
Bit rate                                 : 384 Kbps
Width                                    : 1 280 pixels
Height                                   : 720 pixels
Display aspect ratio                     : 16:9
Frame rate                               : 29.976 fps
Bits/(Pixel*Frame)                       : 0.017
Stream size                              : 400 MiB (89%)

Audio
ID                                       : 0
Format                                   : Cooker
Codec ID                                 : cook
Codec ID/Info                            : Based on G.722.1, Real Player 6
Duration                                 : 2h 25mn
Bit rate                                 : 44.1 Kbps
Channel(s)                               : 2 channels
Sampling rate                            : 44.1 KHz
Bit depth                                : 48 bits
Stream size                              : 46.0 MiB (10%)










Enlaces De Descarga


Mirabai



En inglés con Subtítulos pegados.
Subida propia.
Primero abrir con File Splitter & Joiner y después con winrar, y el archivo resultante renombrar a .rar. El password es el de arriba

Inteligencia Artificial DVDRip V.O.S.E. Rmvb
2 Puntos Score: 2/10
Visitas: 2897 Favoritos: 0
Ver los usuarios que votaron...
20 Comentarios Inteligencia Artificial DVDRip V.O.S.E. Rmvb
Peliculon! se agradece el aporte,  
Cita Lokillone: Mostrar
Gracias por comentar, que la disfrutes    
Que buena peli.
Mi avatar es de esa pelicula.
Cita davidrojas: Mostrar
Ah cierto. Saludos.
no me a decir q no mokearon con esta peli ? muy buena
Cita grungess: Mostrar
S?
compa por que mi winrar no lo identifica no me sale comprimido el archivo me aparece en blanco ayuda porfa
Cita fliper2005: Mostrar
Lo ?
+Pts +Rco  
PD: Esta en Castellano o en ingles?
Cita AquinoPando: Mostrar
Gracias!!!  
En ingl?
"Primero abrir con File Splitter & Joiner y despu?
La verdad lo que no entiendo c?
Cita Ann_th: Mostrar
Hola, me da error el primer link... podrias arreglarlo porrr favor ??
lastima que digas latino y este subtiulada muchas gracias  
Cita radamez69: Mostrar
Donde dice latino??? Jam?
LASTIMA QUE NO PUEDO CITARTE SI NO CON GUSTO LO HARIA .
Y TAMBIEN ES UNA LASTIMA QUE NO RECUERDES LO QUE POSTEAS .
Y ASI CON ESTO ME DESPIDO.
Inteligencia Artificial DVDRip V.O.S.E. Rmvb Categor?
Cita radamez69: Mostrar
ok yo te reitero no fue con la intencion de ofenderte y gracias por tu aporte pero si la tienes dual y si la quieres postear te lo agradezco  
Para dejar un comentario Registrate! o.. eres ya usuario? Accede!