Oops.. Este post tiene los enlaces eliminados!

Identi revisa las denuncias de los usuarios en busca de enlaces eliminados que no dejan descargar los archivos, este mensaje te informa que este post que estas viendo tiene los enlaces eliminados.

Usa el Buscador

Por favor, te recomendamos que uses el buscador para encontrar más alternativas.

Christine John Carpenter Stephen King 1983

  • Categoría: Reciclaje
  • Publicado hace más de 4 años

  Christine es una novela del escritor estadounidense Stephen King, publicada en 1983. Cuenta la historia de un automóvil aparentemente poseído por fuerzas sobrenaturales.
En 1983 se realizó la película sobre Christine.
  Sinopsis            
Christine no es un auto normal. Dentro de su chasis vive un ser detestable. Un Plymourth Fury 1958 rojo con blanco, que lo único que trae instalado es una presencia diabólica con la capacidad de destruir todo a su paso. Seduce a un joven de 17 años, Arnie Cunningham quien se vuelve loco por su gran figura y acabado cromado exigiendole su total atención. Pero cuando personas externas tratan de inferir en su relación, ellos se convierten en sus víctimas.
El protagonista de Christine es Arnold Cunningham, apodado Arnie; un joven muy tímido y estudioso que participa en el club de ajedrez de su universidad. Pero es objeto de las burlas de toda la facultad a causa de su acné y sus grandes gafas. El mejor amigo de Arnie es Denis, mucho más popular que él, ya que juega en el equipo de futbol universitario.
Una tarde, mientras viajan en el coche de Denis, Arnie ve un viejo coche rojo muy descuidado, modelo Plymouth Fury del año 1958, con un rótulo de "Se Vende". A pesar del mal estado del coche, cuyo vendedor lo llama "Christine", Arnie se siente extrañamente atraído por él, por lo que lo compra. Sin embargo, Arnie no puede tener el coche en su casa, ya que sus padres se han enfadado con él por comprar el coche sin consultarles, de modo que tiene que dejarlo en un garaje.
Con el tiempo, Denis comienza a notar ciertos cambios en su amigo: el acné de Arnie desaparece, deja de usar gafas y de jugar al ajedrez. Arnie está más seguro de sí mismo, pero también está profundamente obsesionado con el coche que compró, solo habla de él, y trabaja duramente hasta que logra restaurarlo. Al mismo tiempo, Arnie comeinza a salir con Leigh, la alumna más bonita de la universidad.
Una noche, los abusivos del colegio entran al garaje y destruyen a Christine. Después empiezan a ver varias muertes, con la peculiaridad de que casi todas esas muertes fueron a personas que alguna vez molestaron a Arnie o a Christine. Denis descubre que Christine tiene vida. Denis se lo cuenta a Leigh quien confiesa que ella también lo sospecha. Luego Denis y Leigh se enfrentan finalmente con Christine, montados en una maquina de construcción. Mientras destruyen a Christine, a muchos kilómetros están Arnie y su madre muriendo por un enfrentamiento que tuvieron con Christine anteriormente. 

Dennis Guilder, protagonista.
Arnold "Arnie" Cunningham y Leigh Cabot, Amigos de Dennis coprotagonistas.
Roland D. Lebay, Veterano de Guerra (le vende el coche a Arnie y aunque muere, su "espíritu" sigue morando en Christine), secundario.
Michael y Regina Cunningham, padres de Arnie, secundarios.
[editar]Adaptación cinematográfica
En 1983 se realizó la película sobre Christine. Fue dirigida por John Carpenter, y protagonizada por Keith Gordon, John Stockwell, Alexandra Paul, y Harry Dean Stanton.
Se comenzó a filmar un remake a finales de 2007.

          


Formato : Avi 915 mb 
Idioma: Español Latino
Calidad: Excelente

General

Complete name                    : D:\DVD_VIDEODVD_VIDEO.avi
Format                           : AVI
Format/Info                      : Audio Video Interleave
File size                        : 915 MiB
Duration                         : 1h 50mn
Overall bit rate                 : 1 163 Kbps
Writing application              : MEncoder SVN-r30881(20100311-gcc4.3.3)
Writing library                  : MPlayer
Video
ID                               : 0
Format                           : MPEG-4 Visual
Format profile                   : Advanced [email protected]
Format settings, BVOP            : 2
Format settings, QPel            : No
Format settings, GMC             : No warppoints
Format settings, Matrix          : Default (H.263)
Codec ID                         : XVID
Codec ID/Hint                    : XviD
Duration                         : 1h 50mn
Bit rate                         : 1 023 Kbps
Width                            : 720 pixels
Height                           : 480 pixels
Display aspect ratio             : 3:2
Frame rate                       : 24.000 fps
Standard                         : NTSC
Color space                      : YUV
Chroma subsampling               : 4:2:0
Bit depth                        : 8 bits
Scan type                        : Progressive
Compression mode                 : Lossy
Bits/(Pixel*Frame)               : 0.123
Stream size                      : 805 MiB (88%)
Writing library                  : XviD 1.2.1 (UTC 2008-12-04)
Audio
ID                               : 1
Format                           : MPEG Audio
Format version                   : Version 1
Format profile                   : Layer 3
Mode                             : Joint stereo
Mode extension                   : MS Stereo
Codec ID                         : 55
Codec ID/Hint                    : MP3
Duration                         : 1h 50mn
Bit rate mode                    : Constant
Bit rate                         : 128 Kbps
Channel(s)                       : 2 channels
Sampling rate                    : 44.1 KHz
Compression mode                 : Lossy
Delay relative to video          : 42ms
Stream size                      : 101 MiB (11%)
Alignment                        : Aligned on interleaves
Interleave, duration             : 26 ms (0.63 video frame)
Interleave, preload duration     : 522 ms
*** DIRECTSHOW FILTER LIST ***
1. Default DirectSound Device
2. VMR9 - Renderless mode
3. Gretech Audio
4. Gretech Video
5. MP3 Decoder DMO
6. AVI Splitter
7. Gretech File Stream


*** VIDEO INFO ***
Input Type : XVID(GVC)
Input Size : 720 x 480
Output Type : YUY2
Output Size : 720 x 480
FrameRate(Frame/sec) : 0.00 (24.00)


*** AUDIO INFO ***
SampleRate(Sample/sec) : 44100
BitRate(Bit/sample) : 16
Channels : 2
KBitRate(KBit/sec) : 128



Seguirme si les gustaron las minas seguro que si
y ademas si odias el crap en Identi.
Nosotras seguimos a RAFADETH  porque tu no?detestamos el crap
El crap es mas agresivo y se multiplica estamos en guerra  pero ganaremos
Christine John Carpenter Stephen King 1983
0 Puntos Score: 0/10
Visitas: 1027 Favoritos: 0
7 Comentarios Christine John Carpenter Stephen King 1983
Excelente muy buen post muchas gracias   saludos  
@Rafadeth Brother no tendras, VAMPIRES de JOHN CARPENTER'S?
Me la llevo hermano, una vez mas, muchas pinches gracias!!! esta est?
saludos rafin, cuando vuelva voy a subir una de carpenter para mi la mejor pelicula de el, bueno saludos buena movie
HEY!!! LA ULTIMA PARTE NO DA LA PUEDES RE SUBIR? TE LO AGRADECERIA MUCHO GRACIAS!!!!!!!!
no funciona el link podrias revisarlo por favor???  
@kiove tirado amigo agradecele a mediafire despues vere si la resubo ya seria la 3era vez que la subo
Para dejar un comentario Registrate! o.. eres ya usuario? Accede!