Los Vengadores [2012] [DvdRip][Español Latino][MF]

Título: Los Vengadores
Título original: The Avengers
País: USA
Estreno en USA: 04/05/2012
Estreno en España: 27/04/2012
Productora: Marvel Enterprises
Director: Joss Whedon
Guión: Zak Penn, Joss Whedon
Reparto: Chris Evans, Chris Hemsworth, Mark Ruffalo, Robert Downey Jr., Scarlett Johansson, Jeremy Renner, Samuel L. Jackson, Cobie Smulders, Don Cheadle, Clark Gregg, Lou Ferrigno, Tom Hiddleston
Calificación: No recomendada para menores de 7 años
Tamaño: 700MB
Video: AVi | 624×336 | 1050 Kbps
Audio: Español Latino
Tiempo: 2h 22minutos
Marvel Studios presenta ?Marvel Los Vengadores?, el equipo de super héroes más espectacular de todos los tiempos con iconos como Iron Man, El Increíble Hulk, Thor, Capitán América, Ojo de Halcón y Viuda Negra. Cuando un enemigo inesperado amenaza con poner en peligro la seguridad mundial, Nick Fury, Director de la agencia internacional para el mantenimiento de la paz, conocida con el nombre de SHIELD, necesita encontrar urgentemente un equipo que salve al mundo del mayor de los desastres. Así empieza una búsqueda por todo el mundo para reclutar personal.
========================================================================================================
 1.81 GB
 
Format : AVI
Format/Info : Audio Video Interleave
File size : 1.81 GiB
Duration : 2h 17mn
Overall bit rate : 1 893 Kbps
 
Video
ID : 0
Format : MPEG-4 Visual
Codec ID : XVID
Codec ID/Hint : XviD
Duration : 2h 17mn
Bit rate : 1 500 Kbps
Width : 720 pixels
Height : 400 pixels
Display aspect ratio : 16:9
Frame rate : 25.000 fps
Color space : YUV
Chroma subsampling : 4:2:0
Bit depth : 8 bits
Scan type : Progressive
Compression mode : Lossy
Bits/(Pixel*Frame) : 0.208
Stream size : 1.44 GiB (79%)
Writing library : XviD 1.2.1 (UTC 2008-12-04)
Audio
ID : 1
Format : AC-3
Format/Info : Audio Coding 3
Mode extension : CM (complete main)
Format settings, Endianness : Big
Codec ID : 2000
Duration : 2h 17mn
Bit rate mode : Constant
Bit rate : 384 Kbps
Channel(s) : 6 channels
Channel positions : Front: L C R, Side: L R, LFE
Sampling rate : 48.0 KHz
Bit depth : 16 bits
Compression mode : Lossy
Stream size : 376 MiB (20%)
[/left]
[/font][/color][/center]
Los Vengadores [2012] [DvdRip][Español Latino][MF]
10 Puntos Score: 10/10
Visitas: 3091 Favoritos: 4
Ver los usuarios que votaron...
24 Comentarios Los Vengadores [2012] [DvdRip][Español Latino][MF]
ey la de 1.8Gb esta en espa?
no se puede descargar sale q no esta la pagina...
Gracias, empiezo a descargar de inmediato, nos vemos.
gracias por esta pelicula la estaba esperando
vamos a ver  que tal la de 1.80, gracias!!  
Cita maurimza77: Mostrar
el Jdownloader no sirve podrias poner los link por favor asi podemos descargar de otra manera tira error de pagina
ya dias el j. no agarra los links, ponerlos @MrPunkskap por fa
buen post!! descargando sin problemas!!  
super post sigue asi descargando sin pex
la q ocupa 700mb tambien dura 2h.17min... aclaro porq queria el audio pero no me coicide con la version q tengo en ingles
el de 1.81 GB funciona al pedo... +reco +10  te lo ganastes hermano! sigue asi! gracias...
Te agradesco super pelicula
fuera de linea
me faltaron los ultimos 2 links
Gracias por el post, pero el de 1.81 GB ya se cayeron los links  
gracias descargando
por favorrr me pide pass!!!!  cual es???
fuera de linea todos !!
estan bien los links..gracias por el aporte
no funciona ninguno
Para dejar un comentario Registrate! o.. eres ya usuario? Accede!