Sexto Sentido DVD Rip V.O.S.E, Links propios

Hola a todos! Bienvenidos a mi primer post.
Espero les guste mi primer aporte. Es subida propia. Incluso yo misma preparé la conversión.


Sexto Sentido DVD Rip V.O.S.E, Links propios





El Dr. Malcom Crowe es un conocido psicólogo infantil de Philadelphia obsesionado con el doloroso recuerdo de un joven paciente desequilibrado al que fue incapaz de ayudar. Cole Sear es un aterrorizado y confuso niño de 8 años que necesita tratamiento, y Crowe ve la oportunidad de redimirse haciendo todo lo posible por ayudarle. Sin embargo, el psicólogo infantil no está preparado para conocer la terrible verdad acerca del don sobrenatural de su paciente: recibe visitas no deseadas de espíritus atormentados.

Información:
http://www.imdb.es/title/tt0167404/plotsummary

Bruce Willis ...  Dr. Malcolm Crowe

 Haley Joel Osment ...  Cole Sear

 Toni Collette ...  Lynn Sear

 Olivia Williams ...  Anna Crowe

 Trevor Morgan ... Tommy Tammisimo

 Donnie Wahlberg ...  Vincent Grey

 Peter Anthony Tambakis ...  Darren (as Peter Tambakis)

   Jeffrey Zubernis   ...    Bobby
 Bruce Norris ...  Stanley Cunningham

 Glenn Fitzgerald ...  Sean
 Greg Wood ... Mr. Collins

 Mischa Barton ...  Kyra Collins

 Angelica Page ...  Mrs. Collins (as Angelica Torn)
 Lisa Summerour ...  Bridesmaid

 Firdous Bamji ...  Young Man Buying Ring

 Samia Shoaib ... Young Woman Buying Ring

 Hayden Saunier ...  Darren's Mom

 Janis Dardaris ...  Kitchen Woman
 Neill Hartley ...  Visitor #2

 Sarah Ripard ... Visitor #3
 Heidi Fischer ...  Visitor #4

 KaDee Strickland ...  Visitor #5

 Michael J. Lyons ...  Visitor #6
 Samantha Fitzpatrick ...  Kyra's Sister
 Holly Rudkin ... Society Lady #1
 Kate Kearney-Patch ...  Society Lady #2
 Marilyn Shanok ...  Woman at Accident

 M. Night Shyamalan ...  Dr. Hill
 Wes Heywood ... Commercial Narrator

 Nico Woulard ...  Hanged Child
 Carol Nielson ...  Hanged Female
 Keith Woulard ...  Hanged Male
 Jodi Dawson ... Burnt Teacher
 Tony Michael Donnelly ...  Gunshot Boy (as Tony Donnelly)
 Ronnie Lea ...  Secretary
 Carlos Xavier Lopez ...  Spanish Ghost on Tape (voice) (as Carlos X. López)
 Gino Inverso ... Young Vincent
 Ellen Sheppard ...  Mrs. Sloan
 Tom McLaughlin ...  Anna's Father
 Candy Aston-Dennis ...  Anna's Mother (as Candy Aston Dennis)

 Patrick McDade ...  Shaken Driver (as Patrick F. McDade)
 Jose L. Rodriguez ...  Husband
rest of cast listed alphabetically:

 Gina Allegro ...  Bride's Friend (uncredited)

 Bob Bowersox ...  Restaurant Patron (uncredited)
 Kym Cohen ...  Bride's maid (uncredited)

 Colleen June McQuaide ...  Tommy's TV Mom (uncredited)

 Sean Oliver ... Ghost in the Dungeon (uncredited)

 Alison Robertson ...  Waitress (uncredited)


http://www.imdb.com/title/tt0167404/fullcredits

Subtítulos pegados a la película

Format                                   : AVI
Format/Info                              : Audio Video Interleave
File size                                : 848 MiB (Esto pesa)
Duration                                 : 1h 47mn
Overall bit rate                         : 1 240 Kbps
Writing application                      : Lavf52.93.0

Video
ID                                       : 0
Format                                   : MPEG-4 Visual
Format profile                           : [email protected]
Format settings, BVOP                    : No
Format settings, QPel                    : No
Format settings, GMC                     : No warppoints
Format settings, Matrix                  : Default (H.263)
Codec ID                                 : FMP4
Duration                                 : 1h 47mn
Bit rate                                 : 1 099 Kbps
Width                                    : 1 280 pixels
Height                                   : 720 pixels
Display aspect ratio                     : 16:9
Frame rate                               : 29.970 fps
Color space                              : YUV
Chroma subsampling                       : 4:2:0
Bit depth                                : 8 bits
Scan type                                : Progressive
Compression mode                         : Lossy
Bits/(Pixel*Frame)                       : 0.040
Stream size                              : 844 MiB (89%)
Writing library                          : Lavc52.108.0

Audio
ID                                       : 1
Format                                   : MPEG Audio
Format version                           : Version 1
Format profile                           : Layer 2
Codec ID                                 : 50
Duration                                 : 1h 46mn
Bit rate mode                            : Constant
Bit rate                                 : 128 Kbps
Channel(s)                               : 2 channels
Sampling rate                            : 48.0 KHz
Compression mode                         : Superb
Stream size                              : 97.8 MiB (10%)
Alignment                                : Aligned on interleaves
Interleave, duration                     : 24 ms (0.72 video frame)
Interleave, preload duration             : 24 ms








Mirabai


Espero sus comentarios. Saludos!

Por cierto, es un archivo rar que luego dividí con file splitter and joiner, así que uds. deben de hacer lo inverso, primero unirlo con file splitter and joiner y despúes descomprimir el rar con la contreseña señalada más arriba.
Sexto Sentido DVD Rip V.O.S.E, Links propios
8 Puntos Score: 4/10
Visitas: 943 Favoritos: 1
Ver los usuarios que votaron...
12 Comentarios Sexto Sentido DVD Rip V.O.S.E, Links propios
G            R                 A                S               I              A              S ?
Cita chingos: Mostrar
Note que era tu primer post     .... :up:Felicidades    y bienbenidaa esta l maravillosa comunidad  ........

entonces ma?
Muy bueno , la queria ver. gracias por compartir  
la buscaba en latino
@_elteban_  Gracias a ti por comentar
@shaka33 Pssssss...  
@Mirabai Van puntos por nombrarme  
grande amigo felicitaciones por el post exelente!  
Cita 14GABI7: Mostrar
Ejem... Amiga... Gracias a ti por comentar
Reco +5

Vengo  a buitrear. je
Cita Shootagain: Mostrar
Jejej.. Gracias por los puntitos  
Para dejar un comentario Registrate! o.. eres ya usuario? Accede!