educap
"Por qué algo y no más bien nada?"

2005-El cadaver de la novia-La novia cadaver











Título Original: Tim Burton's Corpse Bride
Dirección: Mike Johnson y Tim Burton.
Países: USA y Reino Unido.
Año: 2005.
Duración: 76 min.
Género: Animación, comedia.
Doblaje original: Johnny Depp (Victor Van Dort), Helena Bonham Carter (La novia cadáver), Emily Watson (Victoria Everglot), Tracey Ullman (Nell Van Dort/Hildegarde), Paul Whitehouse (William Van Dort/Mayhew/Paul el maitre), Joanna Lumley (Maudeline Everglot), Albert Finney (Finis Everglot), Richard E. Grant (Barkis Bittern), Christopher Lee (Pastor Galswells), Michael Gough (Elder Gutknecht).
Guión: John August, Caroline Thompson y Pamela Pettler; basado en los personajes creados por Tim Burton y Carlos Grangel.
Producción: Tim Burton y Allison Abbate.
Música: Danny Elfman.
 
Sinopsis
 
Ambientada en un pueblecito europeo en el si-glo XIX, esta película de animación fotograma a fotograma cuenta la historia de Victor (a quien pone voz Johnny Depp), un joven que es llevado de repente al infierno, donde se casa con una misteriosa Novia Cadáver (con la voz de Helena Bonham Carter), mientras que su verdadera novia, Victoria (a quien pone voz Emily Watson) espera en el mundo de los vivos. A pesar de que la tierra de los muertos resulta ser más colorista que su estricta edu-cación victoriana, Victor aprende que no hay nada en este mundo, ni en el siguiente, que pueda separarle de su único y verdadero amor. Es un cuento de optimismo, romance y una ?otra vida? muy animada, contada con el clásico estilo Tim Burton.










General
Complete name                    : E:El cadaver de la novia.avi
Format                           : AVI
Format/Info                      : Audio Video Interleave
File size                        : 700 MiB
Duration                         : 1h 17mn
Overall bit rate                 : 1 269 Kbps
Writing application              : VirtualDubMod 1.5.4.1 (build 2178/release)
Writing library                  : VirtualDubMod build 2178/release

Video
ID                               : 0
Format                           : MPEG-4 Visual
Format profile                   : Advanced [email protected]
Format settings, BVOP            : 1
Format settings, QPel            : No
Format settings, GMC             : No warppoints
Format settings, Matrix          : Custom
Codec ID                         : XVID
Codec ID/Hint                    : XviD
Duration                         : 1h 17mn
Bit rate                         : 814 Kbps
Width                            : 672 pixels
Height                           : 384 pixels
Display aspect ratio             : 16:9
Frame rate                       : 23.976 fps
Color space                      : YUV
Chroma subsampling               : 4:2:0
Bit depth                        : 8 bits
Scan type                        : Progressive
Compression mode                 : Lossy
Bits/(Pixel*Frame)               : 0.132
Stream size                      : 449 MiB (64%)
Writing library                  : XviD 1.2.0.dev47 (UTC 2006-11-01)

Audio
ID                               : 1
Format                           : AC-3
Format/Info                      : Audio Coding 3
Mode extension                   : CM (complete main)
Codec ID                         : 2000
Duration                         : 1h 17mn
Bit rate mode                    : Constant
Bit rate                         : 448 Kbps
Channel(s)                       : 6 channels
Channel positions                : Front: L C R, Side: L R, LFE
Sampling rate                    : 48.0 KHz
Bit depth                        : 16 bits
Compression mode                 : Lossy
Delay relative to video          : 7ms
Stream size                      : 247 MiB (35%)
Alignment                        : Split accross interleaves
Interleave, duration             : 96 ms (2.30 video frames)
Interleave, preload duration     : 96 ms
Language                         : Spanish latino







Avi xvid
Latino!
700 MB
PutLocker
Uploader educap











Enlaces De Descarga

educap









2005-El cadaver de la novia-La novia cadaver
40 Puntos Score: 8/10
Visitas: 3826 Favoritos: 5
Ver los usuarios que votaron...
31 Comentarios 2005-El cadaver de la novia-La novia cadaver
Buen Aporte amigo!!!
mm.. lo baje pero q hago con el archivo si no se puede descomprimir
@Inicuo gracias por pasar amigo!!!
Cita saint_666: Mostrar
renombra todo asi: 2005-El cadaver de la novia.avi
vale lo renombre pero no pasa nada con q lo descomprimes tu?
Cita saint_666: Mostrar
el archivo no esta comprimido, es un avi.... es un archivo de video... si descargo bien lo tenes uqe ver sin mas ni mas, le tenes que poner el .avu al final!!!!! poruqe pl suele modificar extenciones   comenta como lo resolviste  
gracias de todos modos pero me lo toma como un archivo no como un video.. le cambie el nombre pero nose, no  lo agarra como video...
me sale archivo desactualizado ,no puedes subila de nuevo gracias
Cita jufrenci: Mostrar
lo que te sale es "complemento" desactualizado: se soluciona descargandola manualmente, sin usar gestores como el jdownloader y anda. el pass es educap  
gracias voy a intertar
vale gracias por la peli.. encontre el problema yo la habia bajado con JD ... y ahora la baje directo y la pude ver.. gran aporte..  
Cita saint_666: Mostrar


Cita jufrenci: Mostrar
golpea que te van a abrir  
Buen aporte maestro. Gracias por compartir
Saludos
gracias por los puntos ,solo me quedaban 5
Cita sdcaza: Mostrar

Cita loki_: Mostrar
gracias muchachos por los puntos no se preocupen, si me interesa saber si les sirve  
el link esta caido lo puedes subir otra vez por fa
Cita bullangue: Mostrar
amigo no esta caido en enlace: quiza es que debas descargarla manualmente porque el jd cuando tiene contrase?
no aparce el link de descarga  
Cita aya23: Mostrar
lo acabo de probar y anda perfecto, fijate otra vez, no es problema de este lado, quiza es tu navegador... avisa
despues que pasan los 12 segundos solo me aparece que ya puedo descargar pero no aparace el link   quizas si sea mi navegador gracias de todas maneras
Cita aya23: Mostrar
usa chrome, o mozila
uso mozila de hecho
bajando, gracias
gracias por la subida
Cita EcchiMaru: Mostrar
gracias amigo  
Cita Zethiel: Mostrar
gracias por la bajada  
Gracias amigo, buen aporte
gracias por compartir
MUCHAS GRACIAS POR COMPARTIR  
gracias amigo   +10
Cita pichungo: Mostrar
me alegro que siga funcionando gracias x los 10  
Para dejar un comentario Registrate! o.. eres ya usuario? Accede!