Scarface película DVD Inglés -Latino




SINOPSIS

Un emigrante cubano frío y sanguinario, Tony Montana, llega de Cuba para instalarse en Miami, donde se propone hacerse con un nombre dentro del crimen organizado de Florida. Junto a su amigo, Manny Rivera, inicia una fulgurante carrera delictiva con el objetivo de ascender a la cúpula de una organización de narcos.


Ficha Tecnica:

 

Titulo: Scarface
Dirección: Brian De Palma
Guión: Oliver Stone
Reparto: Al Pacino / Steven Bauer
Países: Estados Unidos
Año: 1983
Género: Crimen / Drama /Thriller
Duración: 170 m.
Distribución: Universal Pictures




DATOS DEL DVD


Format                                   : MPEG-PS
Overall bit rate                         : 3 664 Kbps

Video
ID                                       : 224 (0xE0)
Format                                   : MPEG Video
Format version                           : Version 2
Format profile                           : [email protected]
Format settings, BVOP                    : Yes
Format settings, Matrix                  : Custom
Bit rate mode                            : Variable
Bit rate                                 : 2 951 Kbps
Maximum bit rate                         : 9 800 Kbps
Width                                    : 720 pixels
Height                                   : 480 pixels
Display aspect ratio                     : 16:9
Frame rate                               : 29.970 fps
Standard                                 : NTSC
Color space                              : YUV
Chroma subsampling                       : 4:2:0
Bit depth                                : 8 bits
Scan type                                : Interlaced
Scan order                               : Top Field First
Compression mode                         : Lossy
Bits/(Pixel*Frame)                       : 0.285
Stream size                              : 825 MiB (81%)

Audio #1
ID                                       : 189 (0xBD)-128 (0x80)
Format                                   : AC-3
Format/Info                              : Audio Coding 3
Mode extension                           : CM (complete main)
Format settings, Endianness              : Big
Muxing mode                              : DVD-Video
Duration                                 : 39mn 4s
Bit rate mode                            : Constant
Bit rate                                 : 448 Kbps
Channel(s)                               : 6 channels
Channel positions                        : Front: L C R, Side: L R, LFE
Sampling rate                            : 48.0 KHz
Bit depth                                : 16 bits
Compression mode                         : Lossy
Stream size                              : 125 MiB (12%)

Audio #2
ID                                       : 189 (0xBD)-130 (0x82)
Format                                   : AC-3
Format/Info                              : Audio Coding 3
Mode extension                           : CM (complete main)
Format settings, Endianness              : Big
Muxing mode                              : DVD-Video
Duration                                 : 39mn 4s
Bit rate mode                            : Constant
Bit rate                                 : 192 Kbps
Channel(s)                               : 2 channels
Channel positions                        : Front: L R
Sampling rate                            : 48.0 KHz
Bit depth                                : 16 bits
Compression mode                         : Lossy
Stream size                              : 53.7 MiB (5%)

Text #1
ID                                       : 189 (0xBD)-32 (0x20)
Format                                   : RLE
Format/Info                              : Run-length encoding
Muxing mode                              : DVD-Video

Text #2
ID                                       : 189 (0xBD)-33 (0x21)
Format                                   : RLE
Format/Info                              : Run-length encoding
Muxing mode                              : DVD-Video

Text #3
ID                                       : 189 (0xBD)-34 (0x22)
Format                                   : RLE
Format/Info                              : Run-length encoding
Muxing mode                              : DVD-Video



Tiene doble audio: inglés y español de latinoamérica
Subtítulos:Inglés, español y francés
Calidad: excelente



CAPTURAS


















LINK DE DESCARGA

http://www.mediafire.com/?62euh21nexmwo


Scarface película DVD Inglés -Latino
20 Puntos Score: 10/10
Visitas: 3075 Favoritos: 3
Ver los usuarios que votaron...
29 Comentarios Scarface película DVD Inglés -Latino
Cita Emis: Mostrar
gracias por los puntos y comentar
son 24 partes y llevo 22
en una hora subo las ?
@HUGUIN85 amigo cuanto es el peso total de la pelicula?
Cita carlos1984: Mostrar
4.37 GB
wena... yo descargue la paridia porno si jajaja  
Aportaazo, gracias por compartir  
Cita Dark_Lex: Mostrar
?
@HUGUIN85 jajaj no se si se pueda hacer propaganda a otra pagina aki, porke seria spam (creo)...,., pon en google hakstore y ahi la buscas
GRACIAS, ya tenia rato buscandola, ahora quiero la de cara cortada la primera que es en blanco y negro.
Cita 2pac_makav: Mostrar
INFORMO QUE NO VOLVER?
Cita HUGUIN85: Mostrar
Cita ghio: Mostrar
con gusto
Excelente amigo buen post  
Compadre, muchas gracias por el aporte. Se me perdio mi copia y justo la andaba buscando. Ahora, una sola pregunta: no logro acceder al folder de Mediafire. Como le hago para poder descargarla?
Nuevamente, muchas gracias
gracias por la pelicula ya la descarge
Cita elgallosud: Mostrar
gracias por comentar
@HUGUIN85 de casualidad no tienes el segundo dvd ya que dice disco 1? esque para tambien descargarlo
Cita elgallosud: Mostrar
no
lo tuve pero por falta de espacio en mi pc lo borr?
@HUGUIN85 bueno ni modo como quiera gracias en un rato mas voy a quemar la pelicula para verla y aver si subes mas dvd full ya que son los que mas descargo
No se puede acceder a la carpeta  
Gracias por el aporte pero falta la parte 01.par   solo mefalta esa parte.
Falta la parte 1, una verdadera l?
Para dejar un comentario Registrate! o.. eres ya usuario? Accede!