maxneto
"Uploader Fulltime...Un fin comun...Compartir."

Battleship-[Solo audio Latino AC3][720p][MF]1 link









INFO/DE DONDE SE EXTRAJO EL AUDIO
Format: AVI
Format/Info: Audio Video Interleave
File size:1.44 GiB
Duration:2h 11mn
Overall bit rate : 1 573 Kbps


Video
ID: 0
Format:MPEG-4 Visual
Format profile: Advanced Simple@L5
Format settings, BVOP: 2
Format settings, QPel: No
Format settings, GMC: No warppoints
Format settings, Matrix: Default (H.263)
Muxing mode: Packed bitstream
Codec ID: XVID
Codec ID/Hint: XviD
Duration: 2h 11mn
Bit rate: 1 307 Kbps
Width: 720 pixels
Height: 304 pixels
Display aspect ratio: 2.35:1
Frame rate: 23.976 fps
Color space: YUV
Chroma subsampling: 4:2:0
Bit depth: 8 bits
Scan type: Progressive
Compression mode: Lossy
Bits/(Pixel*Frame): 0.249
Stream size: 1.20 GiB (83%)
Writing library: XviD 64





INFO/AUDIO

Audio
ID: 1
Format: AC-3
Format/Info: Audio Coding 3
Mode extension: CM (complete main)
Codec ID: 2000
Duration: 2h 11mn
Bit rate mode: Constant
Bit rate: 256 Kbps
Channel(s): 6 channels
Channel positions : Front: L C R, Side: L R, LFE
Sampling rate: 48.0 KHz
Bit depth: 16 bits
Compression mode: Lossy
Stream size: 240 MiB (16%)
Alignment: Split accross interleaves
Interleave, duration: 42 ms (1.00 video frame)
Interleave, preload duration: 500 ms


Unir Audio con
Mkvmerge Gui
http://www.mediafire.com/?7fjj7t7drrxcdlm


www.identi.li



DESCARGAR SOLO AUDIO
Peso: 240MB
Enlaces De Descarga
1 Link
audiolat.rar
=================================================================================
http://www.putlocker.com/file/F3F6027D92B00C2A

Mirror 1 link

audiolat.rar
 =================================================================================

http://glumbouploads.com/bu9zxsx12lxf

Opcion 2 Links Mediafire
Latino.AC3-5.1.BDrip-XviD.SBT.mka.part2.rar
=================================================================================
http://www.mediafire.com/?3zsggv9dxly0mve

Latino.AC3-5.1.BDrip-XviD.SBT.mka.part1.rar
=================================================================================
http://www.mediafire.com/?g2bn5wulla2naaw



Battleship-[Solo audio Latino AC3][720p][MF]1 link
0 Puntos Score: 0/10
Visitas: 2814 Favoritos: 3
7 Comentarios Battleship-[Solo audio Latino AC3][720p][MF]1 link
SABES COMO LO PONGO EN UNA CARPETA VIDEO_TS?
por que el audio si es la peli que quiero pero gracias .
Excelente !!! tenia la peli y solo me hacia falta el audio en latino, RIFADO !!!!
gracias amigo voy a provarlo
podrías subirlo de nuevo saludos
Para dejar un comentario Registrate! o.. eres ya usuario? Accede!