Luis Salinas.En Estereo.TDTRip.HD 1080i

Salinas en estereo







Bueno esto es una grabacion propia del programa En Estereo de canal 9, esta vez con el gordo Salinas, la verdad un kpo. La señal fue ripeada de la señal HD de canal 9, les recomiendo que lo bajen porque vale la pena.


General
ID                                       : 1 (0x1)
Complete name                            : E:Salinas.EnEstereo.ripped by ReyXeneise.ts
Format                                   : MPEG-TS
File size                                : 1.42 GiB
Duration                                 : 33mn 17s
Overall bit rate mode                    : Variable
Overall bit rate                         : 6 098 Kbps

Video
ID                                       : 4097 (0x1001)
Menu ID                                  : 1 (0x1)
Format                                   : AVC
Format/Info                              : Advanced Video Codec
Format profile                           : [email protected]
Format settings, CABAC                   : Yes
Format settings, ReFrames                : 3 frames
Codec ID                                 : 27
Duration                                 : 33mn 17s
Bit rate mode                            : Constant
Bit rate                                 : 5 600 Kbps
Width                                    : 1 920 pixels
Height                                   : 1 080 pixels
Display aspect ratio                     : 16:9
Frame rate                               : 25.000 fps
Standard                                 : PAL
Color space                              : YUV
Chroma subsampling                       : 4:2:0
Bit depth                                : 8 bits
Scan type                                : Interlaced
Scan order                               : Top Field First
Bits/(Pixel*Frame)                       : 0.108
Stream size                              : 1.29 GiB (91%)
Color primaries                          : BT.709
Transfer characteristics                 : BT.709
Matrix coefficients                      : BT.709

Audio #1
ID                                       : 4099 (0x1003)
Menu ID                                  : 1 (0x1)
Format                                   : AAC
Format/Info                              : Advanced Audio Codec
Format version                           : Version 4
Format profile                           : LC
Muxing mode                              : ADTS
Codec ID                                 : 15
Duration                                 : 33mn 17s
Bit rate mode                            : Variable
Bit rate                                 : 125 Kbps
Minimum bit rate                         : 6 375 bps
Maximum bit rate                         : 469 Kbps
Channel(s)                               : 2 channels
Channel positions                        : Front: L R
Sampling rate                            : 48.0 KHz
Compression mode                         : Lossy
Stream size                              : 29.9 MiB (2%)

Audio #2
ID                                       : 4100 (0x1004)
Menu ID                                  : 1 (0x1)
Format                                   : AAC
Format/Info                              : Advanced Audio Codec
Format version                           : Version 4
Format profile                           : LC
Muxing mode                              : ADTS
Codec ID                                 : 15
Duration                                 : 33mn 17s
Bit rate mode                            : Variable
Bit rate                                 : 126 Kbps
Minimum bit rate                         : 6 375 bps
Maximum bit rate                         : 226 Kbps
Channel(s)                               : 2 channels
Channel positions                        : Front: L R
Sampling rate                            : 48.0 KHz
Compression mode                         : Lossy
Stream size                              : 29.9 MiB (2%)


Atencion!! el video esta en formato entrelazado, activen el desentrelazador del decodificador de video!!








Enlaces De Descarga


porreyxeneise
Luis Salinas.En Estereo.TDTRip.HD 1080i
2 Puntos Score: 2/10
Visitas: 1175 Favoritos: 3
Ver los usuarios que votaron...
12 Comentarios Luis Salinas.En Estereo.TDTRip.HD 1080i
Este tipo en un master !!! Gracias  
gracias man por compartir
De nada loco. Bajenlo y veanlo porque este gordo hdp se pasa jaja
master muy buen post pero podes fijarte la parte 4 y la 13 porque no puedo descargarlas
Nah aparece un error que dice que el servidor esta en mantenimiento o algo asi. Intenta despues
amigo por favor podr?
no pude descargar la parte 04 hay alguna posibilidad que lo vuelvas a subir este material es muy bueno y no se encuentra todos los dias. estaria bueno tenerlo
si ... es una l?
hola amigos ya andan bien los links hoy pude terminar de bajarlo
Gente los links estaban caidos temporalmente, ya se puede bajar tranquilamente
vamooooooooooooos bajando la ultima parte que me faltaba!
Para dejar un comentario Registrate! o.. eres ya usuario? Accede!