educap
"Por qué algo y no más bien nada?"
Oops.. Este post tiene los enlaces eliminados!

Identi revisa las denuncias de los usuarios en busca de enlaces eliminados que no dejan descargar los archivos, este mensaje te informa que este post que estas viendo tiene los enlaces eliminados.

Usa el Buscador

Por favor, te recomendamos que uses el buscador para encontrar más alternativas.

1988-Alice-Stop motion-Exclusivo-Obra maestra

  • Categoría: Reciclaje
  • Publicado hace más de 4 años

Obra maestra
Sublime
Muy muy reco



















Subtitulos pegados Español
Audio ingles

--------------------------------------------------------
Format                           : AVI
Format/Info                      : Audio Video Interleave
File size                        : 758 MiB
Duration                         : 1h 33mn
Overall bit rate                 : 1 132 Kbps
Writing library                  : MPlayer

Video
ID                               : 0
Format                           : MPEG-4 Visual
Format profile                   : [email protected]
Format settings, BVOP            : No
Format settings, QPel            : No
Format settings, GMC             : No warppoints
Format settings, Matrix          : Default (H.263)
Codec ID                         : DX50
Codec ID/Hint                    : DivX 5
Duration                         : 1h 33mn
Bit rate                         : 997 Kbps
Width                            : 512 pixels
Height                           : 384 pixels
Display aspect ratio             : 4:3
Frame rate                       : 23.976 fps
Color space                      : YUV
Chroma subsampling               : 4:2:0
Bit depth                        : 8 bits
Scan type                        : Progressive
Compression mode                 : Lossy
Bits/(Pixel*Frame)               : 0.212
Stream size                      : 668 MiB (88%)
Writing library                  : Lavc51.11.0

Audio
ID                               : 1
Format                           : MPEG Audio
Format version                   : Version 1
Format profile                   : Layer 3
Codec ID                         : 55
Codec ID/Hint                    : MP3
Duration                         : 1h 33mn
Bit rate mode                    : Variable
Bit rate                         : 122 Kbps
Channel(s)                       : 1 channel
Sampling rate                    : 48.0 KHz
Compression mode                 : Lossy
Stream size                      : 81.5 MiB (11%)
Alignment                        : Aligned on interleaves
Interleave, duration             : 24 ms (0.58 video frame)
Interleave, preload duration     : 504 ms




Título Original: Neco z Alenky
Dirección: Jan Svankmajer
Guión: Jan Svankmajer (historia de Lewis Carroll)
Intérpretes: Kristýna Kohoutová, Camilla Power
Fotografía: Svatopluk Malý
Año: 1988

Versión checa de Las aventuras de Alicia en el país de las maravillas, escrita por Lewis Caroll. Jan ?vankmajer, transgredió la ternura y sutileza del surrealismo que en su día planteó Disney, con un stop motion bizarro, inquietante, y con ambiente hostil pero no menos interesante que la historia que conocemos. Para ello, ?vankmajer contó con la actuación de una pequeña que además narra el cuento, mientras los demás personajes son interpretados por marionetas.

"Una pequeña niña, aburrida y contemplativa en una habitación llena de extraños objetos, observa cómo un conejo disecado cobra vida y salta de su caja de cristal para ataviarse con indumentaria aristócrata y se alejarse a través del cajón de la mesa de dibujo. Ella lo sigue y cae en un profundo abismo que termina en un laberinto lleno de bóvedas, que ella recorre y que la llevan al encuentro de otros personajes como una oruga, un sombrerero loco o la reina de corazones, antes de reencontrarse con el conejo."

















Enlaces De Descarga

educap











1988-Alice-Stop motion-Exclusivo-Obra maestra
25 Puntos Score: 6.3/10
Visitas: 1169 Favoritos: 6
Ver los usuarios que votaron...
12 Comentarios 1988-Alice-Stop motion-Exclusivo-Obra maestra
Estupendo aporte man. Gracias por compartir
Saludos
Men, hasta ahora me veo el trailer pero por experiencia considero que las mejores versiones de este tipo de historias son las que escapan al canon al que nos tienen malacostumbrados. La obra de Lewis Carroll es todo un homenaje a la filosof?
Esta si la tengo jeje, un clasico de Svankmajer  
He visto cortos de esta peli. Se ve interesante. La voy a descargar.
Van puntos en la noche en cuanto me los recarguen.
se ve muy interesante pero no la puedo descargar, me dice q debo tener cuenta Pro para descargarla
Cita AntonMiran: Mostrar
prdon por no contestar, es duro el problema con los tiempos; existe un problema de como lo bajas, tu debes cliquear aqui no alli, no se si me explico, cualquier cosa decome si pudiste....  
@educap Muy bueno!! Gracias x el aporte.

Te sigo.
<<<<<<<<<gracias, Edu. La verdad que la pque postee fue la primera que vi de Jan, la voy a buscar en Checo, a ver si la encuentro. Un abrazo!
Amigo mio, te queria preguntar si los subtitulos los ten?
Para dejar un comentario Registrate! o.. eres ya usuario? Accede!