TSToons: Vacaciones en Hawaii Latino-cam [GF]

  • Categoría: Televisión
  • Publicado hace más de 4 años
TSToons: Vacaciones en Hawaii Latino-cam [GF]



Lamentablemente volvi a Caer en la SOPA wtf!!!
La cuenta de Gamefront donde estoy subiendo o estaba subiendo
me borraron todos los archivos y ni me avisaron.
Parecio Magia solo vieron, borraron y adios.
Debido a esto NO resubire nada o subire mas cosas hasta encontrar un servidor
lo bastante estable y funcional NO puedo estar resubiendo de nuevo
todo lo que me borran. Disculpenme todos los que seguian mis aportes.

TÍTULO ORIGINAL: Toy Story Toons: Hawaiian Vacation
AÑO: 2011
DURACIÓN: Trailers/Vídeos 6 min.
PAÍS: Sección visual
DIRECTOR: Gary Rydstrom
GUIÓN: Erik Benson, Jason Katz, Gary Rydstrom (Historia: Erik Benson, Christian Roman)
MÚSICA: Mark Mothersbaugh
FOTOGRAFÍA: Animation
REPARTO: Animation
PRODUCTORA: Pixar Animation Studios / Walt Disney Pictures
GÉNERO Animación. Comedia | Secuela. Cortometraje (animación)

SINOPSIS:
Cortometraje que se desarrolla tras ?Toy Story 3?. Bonnie se marcha a Hawai, y Barbie y Ken están emocionados por irse a sus primeras vacaciones tropicales, pero cuando accidentalmente se quedan atrás, depende de Buzz, Woody y el resto de juguetes recrear el paraíso de Hawai en la habitación de Bonnie.

NFO
General
Complete name: Toy.Story.Toon.Vacaciones.en.Hawaii.BR-Rip.XviD.Dual.Latino-Ingles.by.dario2040.avi
Format : AVI
File size : 149 MiB
Duration : 5mn 53s

Video
Format : MPEG-4 Visual
Codec ID : XVID
Codec ID/Hint : XviD
Duration : 5mn 53s
Bit rate : 3 005 Kbps
Width : 720 pixels
Height : 400 pixels
Display aspect ratio : 16:9
Frame rate : 23.976 fps
Stream size : 127 MiB (85%)
Writing library : XviD 64

Audio #1
Format : MPEG Audio
Format profile : Layer 3
Mode : Joint stereo
Codec ID/Hint : MP3
Duration : 5mn 53s
Bit rate mode : Constant
Bit rate : 128 Kbps
Channel(s) : 2 channels
Sampling rate : 48.0 KHz
Delay relative to video : 984ms
Stream size : 5.40 MiB (4%)

Audio #2
Format : AC-3
Format/Info : Audio Coding 3
Duration : 5mn 53s
Bit rate mode : Constant
Bit rate : 384 Kbps
Channel(s) : 6 channels
Sampling rate : 48.0 KHz
Bit depth : 16 bits
Stream size : 16.2 MiB (11%)







Enlaces De Descarga
TSToons: Vacaciones en Hawaii Latino-cam [GF]
0 Puntos Score: 0/10
Visitas: 753 Favoritos: 0
3 Comentarios TSToons: Vacaciones en Hawaii Latino-cam [GF]
MUESTRAME EL LINK NO PUEDO VERLO TE LO AGRADESERIA MUCHO
No muestra los links de descarga...  Gracias agradesco el aporte.
Chicos pero si acabo de revisarlo y si funciona muestra el link, aqui la imagen.
Son mis primeros post, pero los hago con el Generador de post. O estoy haciendo algo mal... ?
Para dejar un comentario Registrate! o.. eres ya usuario? Accede!