Coleccion peliculas bajo pedido.


 
 
 
 
 
 
 
 
 
 

http://www.imdb.com/title/tt0448134/
 
Cita: Mostrar
General
 Format                           : AVI
 Format/Info                      : Audio Video Interleave
 File size                        : 700 MiB
 Duration                         : 1h 43mn
 Overall bit rate                 : 950 Kbps
 

Video
 
 Format                           : MPEG-4 Visual
 Format profile                   : Advanced [email protected]
 Format settings, BVOP            : 1
 Format settings, QPel            : No
 Format settings, GMC             : No warppoints
 Format settings, Matrix          : Custom
 Codec ID                         : XVID
 Codec ID/Hint                    : XviD
 Duration                         : 1h 43mn
 Bit rate                         : 814 Kbps
 Width                            : 720 pixels
 Height                           : 304 pixels
 Frame rate                       : 25.000 fps
 Chroma subsampling               : 4:2:0
 Bit depth                        : 8 bits

Scan type                        : Progressive
 Compression mode                 : Lossy
 Bits/(Pixel*Frame)               : 0.149
 Stream size                      : 600 MiB (86%)
 Writing library                  : XviD 1.2.0.dev47 (UTC 2006-11-01)
 

Audio
 ID                               : 1
 Format                           : MPEG Audio
 Format version                   : Version 1
 Format profile                   : Layer 3
 Mode                             : Joint stereo
 Mode extension                   : MS Stereo
 Codec ID                         : 55
 Codec ID/Hint                    : MP3
 Duration                         : 1h 43mn
 Bit rate mode                    : Constant
 Bit rate                         : 128 Kbps
 Channel(s)                       : 2 channels
 Sampling rate                    : 48.0 KHz
 Compression mode                 : Lossy
 Stream size                      : 94.3 MiB (13%)
 Alignment                        : Aligned on interleaves
 Interleave, duration             : 80 ms (2.00 video frames)
 Interleave, preload duration     : 504 ms

Writing library                  : LAME3.97
 Language                         : Spanish
 

 

 
 
 
 
 
 
 

http://www.imdb.com/title/tt1753722/
 

General
 cohelos2.Coe.sk73.12_72.VO.avi
 Format                           : AVI
 Format/Info                      : Audio Video Interleave
 File size                        : 705 MiB
 Duration                         : 1h 41mn
 Overall bit rate                 : 972 Kbps
 Writing application              : FairUse Wizard - http://fairusewizard.com
 Writing library                  : The best and REALLY easy backup tool
 

Video
 ID                               : 0
 Format                           : MPEG-4 Visual
 Format profile                   : Advanced [email protected]
 Format settings, BVOP            : 2
 Format settings, QPel            : No
 Format settings, GMC             : No warppoints
 Format settings, Matrix          : Default (H.263)
 Muxing mode                      : Packed bitstream
 Codec ID                         : XVID
 Codec ID/Hint                    : XviD
 Duration                         : 1h 41mn
 Bit rate                         : 834 Kbps
 Width                            : 624 pixels
 Height                           : 336 pixels
 Display aspect ratio             : 1.857
 Frame rate                       : 23.976 fps

Color space                      : YUV
 Chroma subsampling               : 4:2:0
 Bit depth                        : 8 bits
 Scan type                        : Progressive
 Compression mode                 : Lossy
 Bits/(Pixel*Frame)               : 0.166
 Stream size                      : 605 MiB (86%)
 Writing library                  : XviD 1.2.1 (UTC 2008-12-04)
 

Audio
 ID                               : 1
 Format                           : MPEG Audio
 Format version                   : Version 1
 Format profile                   : Layer 3
 Mode                             : Joint stereo
 Mode extension                   : MS Stereo
 Codec ID                         : 55
 Codec ID/Hint                    : MP3
 Duration                         : 1h 41mn
 Bit rate mode                    : Constant
 Bit rate                         : 128 Kbps
 Channel(s)                       : 2 channels
 Sampling rate                    : 48.0 KHz
 Compression mode                 : Lossy
 Stream size                      : 92.8 MiB (13%)
 Alignment                        : Aligned on interleaves
 Interleave, duration             : 42 ms (1.00 video frame)
 Interleave, preload duration     : 504 ms
 Writing library                  : LAME3.97
 Encoding settings                : -m j -V 4 -q 2 -lowpass 17 -b 128

 
 
Reseña: Edgar es un joven brasileño de clase media, a punto de cumplir 30 años de edad, vive una crisis de identidad y se encuentra en una posición parecida a la inmensa mayoría de los brasileños. Por un lado el poder, representado por un estado corrupto, abusivo y ausente de que sus obligaciones. En el otro lado el crimen, la violencia cada vez más organizada se convierte en una constante en las vidas de los ciudadanos en las grandes ciudades. Edgar responde a todo esto como un vigilante moderno. Con la ayuda de la tecnología, la contra-información y manipulación, Edgar urde un plan brillante, con la codicia de sus oponentes como ingrediente básico de la razón de su propia destrucción.
 
 
 
 
 
 


 
 
 
 
 

http://www.imdb.com/title/tt0493464/
 

General
 Format                           : AVI
 Format/Info                      : Audio Video Interleave
 File size                        : 718 MiB
 Duration                         : 1h 49mn
 Overall bit rate                 : 913 Kbps
 Writing application              : VirtualDubMod 1.5.10.2 (build 2540/release)
 Writing library                  : VirtualDubMod build 2540/release
 

Video
 ID                               : 0
 Format                           : MPEG-4 Visual
 Format profile                   : Advanced [email protected]
 Format settings, BVOP            : 2
 Format settings, QPel            : No
 Format settings, GMC             : No warppoints
 Format settings, Matrix          : Default (H.263)
 Codec ID                         : DX50
 Codec ID/Hint                    : DivX 5
 Duration                         : 1h 49mn
 Bit rate                         : 776 Kbps
 Width                            : 668 pixels
 Height                           : 278 pixels
 Display aspect ratio             : 2.40:1
 Frame rate                       : 23.976 fps
 Original frame rate              : 25.000 fps

Color space                      : YUV
 Chroma subsampling               : 4:2:0
 Bit depth                        : 8 bits
 Scan type                        : Progressive
 Compression mode                 : Lossy
 Bits/(Pixel*Frame)               : 0.174
 Stream size                      : 610 MiB (85%)
 Writing library                  : XviD 1.0.3 (UTC 2004-12-20)
 

Audio
 ID                               : 1
 Format                           : MPEG Audio
 Format version                   : Version 1
 Format profile                   : Layer 3
 Mode                             : Joint stereo
 Mode extension                   : MS Stereo
 Codec ID                         : 55
 Codec ID/Hint                    : MP3
 Duration                         : 1h 49mn
 Bit rate mode                    : Constant
 Bit rate                         : 128 Kbps
 Channel(s)                       : 2 channels
 Sampling rate                    : 48.0 KHz
 Compression mode                 : Lossy
 Stream size                      : 101 MiB (14%)
 Alignment                        : Aligned on interleaves
 Interleave, duration             : 42 ms (1.00 video frame)
 Interleave, preload duration     : 504 ms
Cita: Mostrar

 


 
 
 
 
 
 
 

http://www.imdb.com/title/tt0808151/
 

demoniosAngels.and.Demons.2009.Extended.Cut.BluRay.720p.x264.DTS-WiKi.mkv.mp4
 Format                           : MPEG-4
 Format profile                   : Base Media / Version 2
 Codec ID                         : mp42
 File size                        : 1.63 GiB
 Duration                         : 2h 26mn
 Overall bit rate mode            : Variable
 Overall bit rate                 : 1 595 Kbps
 Encoded date                     : UTC 2012-06-25 19:03:11
 Tagged date                      : UTC 2012-06-25 20:50:12
 Writing application              : HandBrake 0.9.6 2012022900



 
 
 
 
 
 
http://www.imdb.com/title/tt0089338/
 

 Complete name                    : Inferno in diretta 1985.avi
 Format                           : AVI
 Format/Info                      : Audio Video Interleave
 File size                        : 1.47 GiB
 Duration                         : 1h 30mn
 Overall bit rate                 : 2 320 Kbps
 Writing library                  : VirtualDub build 12667/release
capturas
 
 
 
 
 

 
 
 
 
 

http://www.imdb.com/title/tt0393109/
Complete name                    Brick (2005).mkv
 Format                           : Matroska
 Format version                   : Version 2
 File size                        : 753 MiB
 Duration                         : 1h 45mn
 Overall bit rate                 : 998 Kbps
 Encoded date                     : UTC 2011-01-29 13:18:41
 Writing application              : mkvmerge v4.4.0 ('Die Wiederkehr') built on Oct 31 2010 21:52:48
 Writing library                  : libebml v1.0.0 + libmatroska v1.0
 

 
 
 

 


 
 
Coleccion peliculas bajo pedido.
3 Puntos Score: 3/10
Visitas: 3825 Favoritos: 7
Ver los usuarios que votaron...
Más del Autor...
No se encontraron más posts
29 Comentarios Coleccion peliculas bajo pedido.
definitivamente, no entiendo el titulo, ni eso de bajo pedido sin link? osea como, alguien te pidio estas peliculas? y donde te las pidieron..? bueno, en fin, parece que no me llevo ninguna, soy el primero en comentar jejejej
hola podes conseguirme

hija de la luz ,la academia de policia 5,6,7 chuky 4 porfa ?????
saludos!!1
si poddrias conseguir la pelicula la otra conquista!!!!
y el live acion de usagui drop!!!
@oruga  aqui esta la de la loca academia de policia 6  http://www.identi.li/index.php?topic=90070  
podrias conseguir donde estas hermano? con George Clooney
grasias por el esfuerzo sigue asi, me llevo algunas.
hola disculpa podrias conseguirme la de profesor layton y la diva eterna audio latino gracias
 
si consigues la de the time travelers wife en 720p te lo agradeseria de porvida saludos
Cita katuta: Mostrar
y donde mierda estan los lin MF PL GF???

ME HUELE AL MEDIO SPAM...
sunshine esta en latino?????
en que idiomas estan???
Amigo podrias conseguir estas dos peliculas que llevo la vida buscandolas... no importa el idioma asi sea ne ruso ajajaj es broma

Ecos Mortales 1 con Kevin Bacon http://www.monsterdivx.com/ecos-mortales/
Trapped o Acorralada tambien con Kevin Bacon http://www.bazuca.com/Pelicula-7303346-Acorralada%20(2002)
me llevo Sunshine  
GRACIAS ME LLEVO ALGUNAS
Podes conseguirme la pelicula de Brad Pitt "Juego de Espias"?
gracias por el aporte

ya mire algunas estan super podrias mandarme la de jugada inocente,en busca de body fisher es la misma solo que la busco en audio latino por que la encontre en la red,blogs,google y youtube en castellano.
Cita messi019: Mostrar

idem !
en que idioma estan ?
Hola en que idioma esta Brick?
Gracias
Buennnaaaa por Sunshine, tenes mas de este estilo. Mil gracias capo....
men en que idioma esta angeles y demonios.......
y tiene pass????porfa responde.....
hey amigo ayudame con las pelis del decenso1 y 2 en latino .......
Cita xilensis: Mostrar

quiero decir que me las piden yo las subo.. si no encuentras una pues la pides calidad idioma todo. no es tan dificil pensar.
Cita pancrasio: Mostrar

No tiene pass y esta en ingles.


Cita rodx: Mostrar

solo pide yo subo.



Cita offspring: Mostrar

ingles. son subs


Cita DANNYHXC: Mostrar

al final del post, precisamente tenia los links acortados con linkbucks y los quite.. por eso los pongo al final.


Cita katuta: Mostrar
holaaa diiiaz!! muy bueno tu post!! se re agradece tu aporte )) yo te queria pedir peliculas brasileras! me encantan y tengo una lista.. me gustaria que esten sin el audio en espa?
Amigo me podrias conseguir Looper: agente del futuro en audio latino, te agradezco de ante mano tu ayuda!!!
Hojalas que tuvieras "Promesas del Este", peliculas rusa muy buena de drama y accion, y sino, no importa, gracias de antema bro
Para dejar un comentario Registrate! o.. eres ya usuario? Accede!