Oops.. Este post tiene los enlaces eliminados!

Identi revisa las denuncias de los usuarios en busca de enlaces eliminados que no dejan descargar los archivos, este mensaje te informa que este post que estas viendo tiene los enlaces eliminados.

Usa el Buscador

Por favor, te recomendamos que uses el buscador para encontrar más alternativas.

The Cabin in the Woods 2012 HDRiP

  • Categoría: Reciclaje
  • Publicado hace más de 4 años



The Cabin in the Woods 2012 HDRiP





Cinco amigos deciden ir a un descanso en una remota cabaña en el bosque, donde se reciben más de lo que esperaban. Juntos, tendrán que descubrir la verdad detrás de la cabaña en el bosque.




Género: Terror | Thriller
Director: Drew Goddard
IMDB
Reparto: Kristen Connolly, Chris Hemsworth y Hutchison Anna
Idioma: Inglés
Subtitulos: N / A
Tamaño: 795 MB


GESTOR DE DESCARGA GRATUITO, RÁPIDO Y LIVIANO




Activa estas 2 OPCIONES y descarga sin problemas
Déjalo abierto y el hace el resto del trabajo


Enlaces De Descarga

putlocker



mediafire



gamefront







SI TIENES PROBLEMAS PARA VER LAS PELÍCULAS DESCARGA

PAQUETE DE CODECS


TE REGALO ESTE REPRODUCTOR DE VIDEO





The Cabin in the Woods 2012 HDRiP
12 Puntos Score: 4/10
Visitas: 2310 Favoritos: 1
Ver los usuarios que votaron...
20 Comentarios The Cabin in the Woods 2012 HDRiP
Excelente aporte, sigue asi
@WOLFRICK
[img=http://lasantabiblia.webcindario.com/temp/identi/GVisita.gif]
@WOLFRICK
[SEPARADOR]2014[/SEPARADOR]
no subtitulos verdad?? si no es asi para kuando perdon
tiene subs en coreano?
@checheno1 @tuchi tengo unos muy malos estoy buscando unos mejores
que resolucion tiene?
@shukikin

Genre:Horror | Sci-Fi | Thriller
Language:English
IMDb:http://www.imdb.com/title/tt1259521/
Source:KORSUB.720p.HDRip.x264.AC3-JYK Thanks
Encoder:Tony

Format                                   : AVI
Format/Info                              : Audio Video Interleave
File size                                : 793 MiB
Duration                                 : 1h 35mn
Overall bit rate                         : 1 164 Kbps

Video
ID                                       : 0
Format                                   : MPEG-4 Visual
Format profile                           : Advanced [email protected]
Format settings, BVOP                    : 1
Format settings, QPel                    : No
Format settings, GMC                     : No warppoints
Format settings, Matrix                  : Default (H.263)
Codec ID                                 : XVID
Codec ID/Hint                            : XviD
Duration                                 : 1h 35mn
Bit rate                                 : 962 Kbps
Width                                    : 640 pixels
Height                                   : 240 pixels
Display aspect ratio                     : 2.667
Frame rate                               : 23.976 fps
Color space                              : YUV
Chroma subsampling                       : 4:2:0
Bit depth                                : 8 bits
Scan type                                : Progressive
Compression mode                         : Lossy
Bits/(Pixel*Frame)                       : 0.261
Stream size                              : 656 MiB (83%)
Writing library                          : XviD 1.2.1 (UTC 2008-12-04)

Audio
ID                                       : 1
Format                                   : AC-3
Format/Info                              : Audio Coding 3
Mode extension                           : CM (complete main)
Codec ID                                 : 2000
Duration                                 : 1h 35mn
Bit rate mode                            : Constant
Bit rate                                 : 192 Kbps
Channel(s)                               : 2 channels
Channel positions                        : Front: L R
Sampling rate                            : 48.0 KHz
Bit depth                                : 16 bits
Compression mode                         : Lossy
Stream size                              : 131 MiB (17%)
Alignment                                : Aligned on interleaves
Interleave, duration                     : 42 ms (1.00 video frame)
Interleave, preload duration             : 512 ms
hola no le puedo pegar el sub a ese video asss ni puedo repararlo ni trasnformarlo a otro formato por favor revisalo please solo se visualisa si se arrastra y se suelta sobre la pelicula pero no se puede pegar
PORFIN EXCELENTE APORTE MUCHAS GRACIAS
@abraham15 @virg1981 [SEPARADOR]2014[/SEPARADOR]
@Piapia cambiale el nombre al archivo de los subs, colacola el mismo nombre del archivo de video sin variar la extension y listo  
que locura de pelicula jaja no la imaginaba tal cual !!, esta mas mythologica que la de furia de titanes jajaja  
esta muy buena  
@cips
[SEPARADOR]2016[/SEPARADOR]
@rennyp gracias amigo ya eres parte del post  
@bostono
[SEPARADOR]2016[/SEPARADOR]
Para dejar un comentario Registrate! o.. eres ya usuario? Accede!