Sanctum (El Santuario) 720p Dual LAT-ENG

Sanctum (El Santuario) 720p Dual LAT-ENG





Que tal amigos de Identi, el día de hoy les traigo una excelente película, RECOMENDADA..

Título Original: Sanctum
Género: Acción, Aventuras
Nacionalidad: USA
Año: 2010
Director: Alister Grierson
Guión: John Garvin, Andrew Wight
Reparto: Richard Roxburgh, Ioan Gruffudd, Rhys Wakefield, Alice Parkinson, Dan Wyllie, Allison Cratchley, Christopher Baker, John Garvin, Sean Dennehy

Sinopsis: Inspirada en hechos reales.

Un equipo de submarinistas de cuevas subacuáticas se embarca en una peligrosa expedición por la red de cuevas más extensa, hermosa e inaccesible del mundo. Cuando una tormenta tropical los obliga a internarse en las profundidades de las cuevas, deberán enfrentarse a las embravecidas aguas, el mortífero terreno y el creciente pánico, para tratar de encontrar una posible salida (que ninguno de ellos conoce) que los conduzca hasta el mar.

El experto submarinista Frank McGuire (Richard Roxburgh) lleva meses explorando las cuevas de Esa'ala, en el Pacífico Sur. Sin embargo, cuando una riada les corta la salida, el equipo principal de Frank ?que incluye a su hijo de 17 años, Josh (Rhys Wakefield) y al financiero Carl Hurley (Ioan Gruffudd)? se ve obligado a cambiar radicalmente de plan.

El equipo ?en el que también figuran la novia de Carl, Victoria (Alice Parkinson), y a Crazy George (Dan Wyllie)? ve cómo sus provisiones van escaseando cada vez más y no tendrán más remedio que intentar abrirse paso por un auténtico laberinto submarino para tratar de hallar una salida. No tardarán mucho en tener que hacer frente a la inevitable pregunta: ¿Podrán sobrevivir, o quedarán atrapados para siempre?

INFORMACIÓN TÉCNICA

Video
ID                                       : 0
Format                                   : MPEG-4 Visual
Format profile                           : Advanced [email protected]
Format settings, BVOP                    : 2
Format settings, QPel                    : No
Format settings, GMC                     : No warppoints
Format settings, Matrix                  : Default (MPEG)
Codec ID                                 : XVID
Codec ID/Hint                            : XviD
Duration                                 : 1h 48mn
Bit rate                                 : 3 971 Kbps
Width                                    : 1 280 pixels
Height                                   : 720 pixels
Display aspect ratio                     : 16:9
Frame rate                               : 23.976 fps
Color space                              : YUV
Chroma subsampling                       : 4:2:0
Bit depth                                : 8 bits
Scan type                                : Progressive
Compression mode                         : Lossy
Bits/(Pixel*Frame)                       : 0.180
Stream size                              : 3.02 GiB (75%)
Writing library                          : XviD 1.2.1 (UTC 2008-12-04)

Audio #1
ID                                       : 1
Format                                   : AC-3
Format/Info                              : Audio Coding 3
Codec ID                                 : 2000
Duration                                 : 1h 48mn
Bit rate mode                            : Constant
Bit rate                                 : 640 Kbps
Channel(s)                               : 6 channels
Sampling rate                            : 48.0 KHz
Compression mode                         : Lossy
Stream size                              : 498 MiB (12%)
Alignment                                : Split accross interleaves
Interleave, duration                     : 42 ms (1.00 video frame)
Interleave, preload duration             : 500 ms

Audio #2
ID                                       : 2
Format                                   : AC-3
Format/Info                              : Audio Coding 3
Mode extension                           : CM (complete main)
Format settings, Endianness              : Big
Codec ID                                 : 2000
Duration                                 : 1h 48mn
Bit rate mode                            : Constant
Bit rate                                 : 640 Kbps
Channel(s)                               : 6 channels
Channel positions                        : Front: L C R, Side: L R, LFE
Sampling rate                            : 48.0 KHz
Bit depth                                : 16 bits
Compression mode                         : Lossy
Stream size                              : 498 MiB (12%)
Alignment                                : Split accross interleaves
Interleave, duration                     : 42 ms (1.00 video frame)
Interleave, preload duration             : 500 ms










brau93lio
Sanctum (El Santuario) 720p Dual LAT-ENG
15 Puntos Score: 7.5/10
Visitas: 2997 Favoritos: 5
Ver los usuarios que votaron...
17 Comentarios Sanctum (El Santuario) 720p Dual LAT-ENG
muy buena pelicula gracias, despues paso y te dejo puntos, saludos
aportazo gracias
me la descargu?
@Lorian  yo la estoy descomprimiendo apenas, en unos 15 minutos te digo como me fue
@Lorian te comento q ese problema sabe dar con mipony.. Mi recomendaci?
la descomprimi con exito bajada desde mipony
@rayosx perfecto brother..!!
 
ummm pos entonces a descargar de nuevo asi de facil jejejeej.
Me llev?
solucionado, igual te agradezco por el inter?
Amigo: la baj?
@OSMOL Dedende el reproductor que tengas..!!
Te recomiendo ste:
Splash PRO ex HD..
Maximiza la calidad de la pelicula, y en la parte de abajo dice AUDIO, ahi eliges ESPA?
Cita brau93li: Mostrar
como descargo la pelicula
amigo podrias subir los links sueltos gracias
El peor de todos los servidores
falta la parte 9
Para dejar un comentario Registrate! o.. eres ya usuario? Accede!