El Tesoro de las Amazonas Bluray 720p Dual con Sub

El Tesoro de las Amazonas Bluray 720p Dual  Latino con Sub
Mediafire
Travis (Seann William Scott) es el hijo de un capo mafioso que desaparece en extrañas cir-cunstancias en el Amazonas cuando está buscando un objeto de muchísimo valor. En su búsqueda su padre manda a su hombre de confianza, Beck (The Rock), para que lo lleve de vuelta a casa. Cuando Beck logra dar con él, también encontrará problemas con un villano, Hatcher (Christopher Walken), que busca el mismo obje-to precioso. En medias de todo esto se cuela una mujer, Mariana (Rosario Dawson), de la cual se enamoran los dos protagonistas.



Format                                   : Matroska
Format version                           : Version 2
File size                                : 4.51 GiB
Duration                                 : 1h 42mn
Overall bit rate                         : 6 283 Kbps
Encoded date                             : UTC 2012-08-12 16:45:02
Writing application                      : mkvmerge v5.7.0 ('The Whirlwind') built on Jul  8 2012 20:08:51
Writing library                          : libebml v1.2.3 + libmatroska v1.3.0

Video
ID                                       : 1
Format                                   : AVC
Format/Info                              : Advanced Video Codec
Format profile                           : [email protected]
Format settings, CABAC                   : Yes
Format settings, ReFrames                : 5 frames
Muxing mode                              : Header stripping
Codec ID                                 : V_MPEG4/ISO/AVC
Duration                                 : 1h 42mn
Bit rate                                 : 5 452 Kbps
Width                                    : 1 280 pixels
Height                                   : 544 pixels
Display aspect ratio                     : 2.35:1
Frame rate                               : 23.976 fps
Color space                              : YUV
Chroma subsampling                       : 4:2:0
Bit depth                                : 8 bits
Scan type                                : Progressive
Bits/(Pixel*Frame)                       : 0.327
Stream size                              : 3.82 GiB (85%)
Writing library                          : x264 core 58 svn-736M

Language                                 : English
Default                                  : Yes
Forced                                   : No

Audio #1
ID                                       : 2
Format                                   : AC-3
Format/Info                              : Audio Coding 3
Mode extension                           : CM (complete main)
Format settings, Endianness              : Big
Muxing mode                              : Header stripping
Codec ID                                 : A_AC3
Duration                                 : 1h 42mn
Bit rate mode                            : Constant
Bit rate                                 : 192 Kbps
Channel(s)                               : 2 channels
Channel positions                        : Front: L R
Sampling rate                            : 48.0 KHz
Bit depth                                : 16 bits
Compression mode                         : Lossy
Stream size                              : 141 MiB (3%)
Title                                    : Español Latino ---> By XxGeForcexX-HD
Language                                 : Spanish
Default                                  : Yes
Forced                                   : No

Audio #2
ID                                       : 3
Format                                   : AC-3
Format/Info                              : Audio Coding 3
Mode extension                           : CM (complete main)
Format settings, Endianness              : Big
Muxing mode                              : Header stripping
Codec ID                                 : A_AC3
Duration                                 : 1h 42mn
Bit rate mode                            : Constant
Bit rate                                 : 640 Kbps
Channel(s)                               : 6 channels
Channel positions                        : Front: L C R, Side: L R, LFE
Sampling rate                            : 48.0 KHz
Bit depth                                : 16 bits
Compression mode                         : Lossy
Stream size                              : 470 MiB (10%)
Title                                    : Inglés ---> By XxGeForcexX-HD
Language                                 : English
Default                                  : No
Forced                                   : No

Text #1
ID                                       : 4
Format                                   : UTF-8
Codec ID                                 : S_TEXT/UTF8
Codec ID/Info                            : UTF-8 Plain Text
Title                                    : Español ---> By XxGeForcexX-HD
Language                                 : Spanish
Default                                  : Yes
Forced                                   : No

Text #2
ID                                       : 5
Format                                   : UTF-8
Codec ID                                 : S_TEXT/UTF8
Codec ID/Info                            : UTF-8 Plain Text
Title                                    : Inglés ---> By XxGeForcexX-HD
Language                                 : English
Default                                  : No
Forced                                   : No


Nota: Esta película esta totalmente sincronizada por mi ya que no se encuentra en Latino en toda la internet espero
que sea de su agrado y sepan valorar el trabajo que cuesta hacer esto y subirla en Mediafire, descargen rapido porque  pueden borrar los links saludos!!



DLC  Consta de 49 Archivos comprimidos con Winrar....

http://www.mediafire.com/?r18vok48kd5fze8

Comentar no cuesta nada saludos!!

Pass

XxGeForcexX


Copiar y pegar si es necesario con mayusculas y todo!!
El Tesoro de las Amazonas Bluray 720p Dual con Sub
25 Puntos Score: 8.3/10
Visitas: 3136 Favoritos: 1
Ver los usuarios que votaron...
25 Comentarios El Tesoro de las Amazonas Bluray 720p Dual con Sub
muy buena pelicula gracias, nadamas falto poner capturas para ver la calidad y que se animen a descargar, saludos
Gran aporte, ahi te van +5
Cita Sermes: Mostrar

Gracias amigo saludos!!
muchas gracias esta genial y en esta calidad se te agradece mucho
Amigo lamentablemente por asunto del tiempo no  he podido subir peliculas en Hd latino,tefno ya unas 15 peliculas maravillosas en mi pc,cuando tengo tiempo empezare a subirlas,saludos amigo
jajaja amigo vea este post qua ahi apareces XD http://www.identi.li/index.php?topic=136199 Saludos amigo
@CR07GT  No me veo por ningun lado xDD saludos!!  
@pipe_84 jajaa amigo me refiero a esta imagen que hay en es post
Salu2 amigo
Gracias amigo  
de lujo   se ev y escuxa.............muxas gracias amigo  
che amigo no tendrias por si acaso la pelicula "el rey scorpion" con la roca, en latino hd??? la ando buscando hace mucho ya, te agradeceria infinitamente
Cita krixzzz: Mostrar


quizas este te sirva http://www.facebook.com/photo.php?fbid=461155007277746&set=a.461154007277846.105027.460173310709249&type=1&theater solo sigues el link y hay la podras encontrar...
gracias esta peli la estuve buscando y como tu dices en latino no se consigue por ning?
Que Tal!! Magnifico la estaba buscando.. Solo que tengo un problema con la parte 48. Me la marca Habilitado el link con JDownloader pero al quererlo descargar me marca "Error critico" ?
Cita pipe_84: Mostrar
@Makinio ohh me alegra saludos!!
hola amigo queria decirte que hiciste un ecxelente trabajo con la peli de el tesoro del amazonas.
He estado buscando la isla de los condenados o en ingles the condemned con steve austin pero solo sale en espa?
@GOMA22 No amigo no la tengo, pero lo puedes hacer en el post que tengo de como sincronizo las peliculas necesitas Sound Forge, form factory e instalar los codecs necesarios de audio y video saludos!!  
muy bueno gracias se ve excelente
 
amigo la puedes subir mucho mas ligero
gracias x compartir
Gracias por compartir, excelente aporte  
Para dejar un comentario Registrate! o.. eres ya usuario? Accede!