Oops.. Este post tiene los enlaces eliminados!

Identi revisa las denuncias de los usuarios en busca de enlaces eliminados que no dejan descargar los archivos, este mensaje te informa que este post que estas viendo tiene los enlaces eliminados.

Usa el Buscador

Por favor, te recomendamos que uses el buscador para encontrar más alternativas.

Borat La Pelicula

  • Categoría: Reciclaje
  • Publicado hace más de 4 años
Borat La Pelicula







Dirección: Larry Charles.
País: USA.
Año: 2006.
Duración: 84 min.
Género: Comedia.
Interpretación: Sacha Baron Cohen (Borat), Ken Davitian (Azamat).
Guión: Sacha Baron Cohen, Anthony Hines, Peter Baynham y Dan Mazer; basado en un argumento de Sacha Baron Cohen, Peter Baynham, Anthony Hines y Todd Phillips.
Producción: Sacha Baron Cohen y Jay Roach.
Música: Erran Baron Cohen.
Fotografía: Anthony Hardwick y Luke Geissbuhler.
Montaje: Peter Teschner y James Thomas.
Dirección artística: David Maturana.
Vestuario: Jason Alper.
Estreno en USA: 3 Noviembre 2006.
Estreno en España: 17 Noviembre 2006.

SINOPSIS

Borat (Sacha Baron Cohen), el reportero número dos de Kazajistán, es enviado a los Estados Unidos de América para hacer una película que acerque a la gloriosa nación de Kazajistán sus enseñanzas culturales.





Format                           : RealMedia
File size                        : 332 MiB
Duration                         : 1h 23mn
Overall bit rate                 : 546 Kbps
Video
ID                               : 1
Format                           : RealVideo 4
Codec ID                         : RV40
Codec ID/Info                    : Based on AVC (H.264), Real Player 9
Duration                         : 1h 23mn
Bit rate                         : 481 Kbps
Width                            : 608 pixels
Height                           : 320 pixels
Display aspect ratio             : 1.900
Frame rate                       : 23.000 fps
Resolution                       : 12 bits
Bits/(Pixel*Frame)               : 0.108
Stream size                      : 289 MiB (87%)
Audio
ID                               : 0
Format                           : Cooker
Codec ID                         : cook
Codec ID/Info                    : Based on G.722.1, Real Player 6
Duration                         : 1h 23mn
Bit rate                         : 64.1 Kbps
Channel(s)                       : 2 channels
Sampling rate                    : 44.1 KHz
Resolution                       : 16 bits
Stream size                      : 38.4 MiB
(12%)

 



Enlaces De Descarga


tofo22
Borat La Pelicula
0 Puntos Score: 0/10
Visitas: 1382 Favoritos: 2
16 Comentarios Borat La Pelicula
buen aporte,muchas gracias
me mori de risa con este tipo,no hay una 2???
deberia de todas formas!!
Como me rei con esta peli la primera vez que la vi. Gracias por compartirla  
Esta buenisima la vi como hace 2 a?
Cita terkio: Mostrar
si yo la tengo pero tendria que buscarla
Excelente aporte, lastima que este en ingles
Cita dbagnis: Mostrar
@miguelenam ingles con sub pegados
Que buen aporte! por ah?
@Alkhum loko subi la otra parte si queri llamarle asi se llama bruno
link caido igual que los de bruno
This file doesn't exist, or has been removed.
Para dejar un comentario Registrate! o.. eres ya usuario? Accede!