El Curioso Caso de Benjamin Button 1080p LAT

El Curioso Caso de Benjamin Button 1080p LAT




Hoooola de nuevo mis amigos de Identi.
Me había distanciado durante un largo periodo, pero aquí me tienen, dando guerra nuevamente.. . Tras la eliminación de mi cuenta en mediafire, me senti pesimo, y habia decidido dejar atras la carga de archivos, pero, como dicen por ahí, un resbalón no es caída.. Así que aquí me tienen compañeros.

Esta vez estoy subiendo mis archivos desde un buen server, ya lo he comprobado en varias ocaciones; como lo es GAME FRONT. El único requisito esque si los archivos no se descargan muy seguido son borrados de la web, asi que depende de ustedes amigos, que los archivos se conserven activos..

Continuando con el POST:
El dia de hoy les traigo una gran película, pero con la diferencia, que esta en el formato que nos gusta a todos, FULLHD (1920x1080) con BANDAS.
Aquí los datos informativos..

SINOPSIS

Brad Pitt encarna al protagonista del título, Benjamin Button, un hombre que nace con ochenta años y va rejuveneciendo con el tiempo. Desde la Nueva Orleans de finales de la Primera Guerra Mundial hasta el siglo XXI, en un viaje tan inusual como la vida de cualquier hombre, esta película cuenta la gran historia de un hombre no tan ordinario y la gente que va conociendo por el camino, los amores que encuentra y que pierde, las alegrías de la vida y la tristeza de la muerte, y que perduran más allá del tiempo.

DATOS TECNICOS

Video
ID                                       : 4113 (0x1011)
Menu ID                                  : 1 (0x1)
Format                                   : AVC
Format/Info                              : Advanced Video Codec
Format profile                           : [email protected]
Format settings, CABAC                   : Yes
Format settings, ReFrames                : 3 frames
Codec ID                                 : 27
Duration                                 : 2h 46mn
Bit rate mode                            : Variable
Bit rate                                 : 2 559 Kbps
Maximum bit rate                         : 25.0 Mbps
Width                                    : 1 920 pixels
Height                                   : 1 080 pixels
Display aspect ratio                     : 16:9
Frame rate                               : 23.976 fps
Color space                              : YUV
Chroma subsampling                       : 4:2:0
Bit depth                                : 8 bits
Scan type                                : Progressive
Bits/(Pixel*Frame)                       : 0.051
Stream size                              : 3.04 GiB (82%)

Audio
ID                                       : 4352 (0x1100)
Menu ID                                  : 1 (0x1)
Format                                   : AC-3
Format/Info                              : Audio Coding 3
Codec ID                                 : 129
Duration                                 : 2h 45mn
Bit rate                                 : 448 Kbps
Channel(s)                               : 2 channels
Sampling rate                            : 48.0 KHz
Compression mode                         : Lossy
Stream size                              : 530 MiB (14%)
Language                                 : LATINO
  
FORMATO M2TS






brau93lio
El Curioso Caso de Benjamin Button 1080p LAT
50 Puntos Score: 7.1/10
Visitas: 11813 Favoritos: 14
Ver los usuarios que votaron...
49 Comentarios El Curioso Caso de Benjamin Button 1080p LAT
Fuck yeah una peli mas para la coleccion  
esa esta buena, me gustaria mas en su idioma origan, pero igual te agradesco.
Me la llevo gracias amigo    
muchas gracias , Saludos
gracias por la pelicula y por el servidor ni desirlo genial que tengas buen domingo
aaaah tenia tiempo buscando esta pelicula y en esta calidad bajando
solo una pregunta es mkv o m2ts  
@IamDseven @saint89 @Nemik42 @bailey_sen @paperdolll @getto1945
Gracias por sus comentarios..!!!
En breve Subire otra pelicula..!!
Atentos..  
Esa calidad es excelente, amigo me la llevo muchas gracias sigue asi.
escelente!!! Muchas gracias!!!  
esta en ingles tambien? o solo en latino??
Cita FBME: Mostrar
parece que es solo latino  
gracias hermano buena la movie sigue igual
grasias cumpa!!
gracias descarga completa  
Tengo problemas con la contrase?
Muchas gracias por tu aporte, lo descomprim?
Gracias @argel10 ..!!
Recomienden el post..!
Hoy por la tarde posteare una peli similar..
excelente aporte compa?
buenimisimo hace rato que la queria ver   te dejo unos puntitos
link caidos.... llegue tarde
@takato75 pilas brother, comprueba bien antes de comentar..!!
Observa, sino sabes agregar los links, sigue el tutorial.. P?
Cita brau93li: Mostrar
solo paso a decirte gracias, la descargue ayer muy buena calidad, te dejo tres puntos sorry es lo que me queda
gracias amigo..por excelente calidad
muchas gracias! que gran pelicula, este formato creo que me lo lee el ps3, me la llevo!!  
@28mdz asi es brother..!!
Si la lee el PS3  
holaaa gracias muy buena la movie
puede arreglar los link ppf
@nirvana8 que problema presentas..??
Los links stan muy bien.. los acabo de chekear  
Bro me quede en en link 5 ahora me dice, Problema con el Servidor? Esperar 6:10m
@basicodhr asi es mi estimado..!!
Por ahora solo toca tener paciencia.!!
El server sta en mantenimiento para brindar mejor servicio. Trankis q en breve stara online  
solo en latino? no la tienes en ingles mejor por fa.
Muchas gracias man!!!!  
hola hola!! oie ahorita estoy tratando de descargar la peli pero me manda que esta fuera de linea.. que show con eso podrias repararlo   saludos
muy buena  ,te dejo  5 monedas de oro    
este formato lo leera mi TV SAMSUNG LED UN40ES6500FXZX? los formatos mkv. si los lee... pero este formato AVC nose... saben algo? gracias!
Creo que estan caidos porque no descarga ... ya estoy usando proxy
saludos, amigo me podrias pasar los linkx con prox me baja solo unos segundo y se cae la descarga, para bajarlo con navegador solo los links no hare mal uso de ellos, gracias..
alguien me puede pasar el link de descarga esq  no puedo  abrir estos  links  con jdawnloader xfa
Excelente peli la andaba buscando en Full HD me encanta ver las pelis en ese formato...
Se autoactiva ?????
gracia por el aporte  
Para dejar un comentario Registrate! o.. eres ya usuario? Accede!