Oops.. Este post tiene los enlaces eliminados!

Identi revisa las denuncias de los usuarios en busca de enlaces eliminados que no dejan descargar los archivos, este mensaje te informa que este post que estas viendo tiene los enlaces eliminados.

Usa el Buscador

Por favor, te recomendamos que uses el buscador para encontrar más alternativas.

Step Up 4 Miami Heat (2012) TS eng 350mb Mkv

  • Categoría: Reciclaje
  • Publicado hace más de 4 años
Step Up 4 Miami Heat (2012) TS eng  350mb   Mkv









 Miami Heat es la nueva entrega de la Etapa éxito en todo el mundo hasta la franquicia, que establece el baile en el contexto dinámico de Miami. Emily (Kathryn McCormick) llega a Miami con aspiraciones de convertirse en una bailarina profesional y pronto se enamora de Sean (Ryan Guzmán), un joven que lleva un equipo de la danza en las turbas elaborados, flash de última generación, llamada ?la mafia?. Cuando un rico hombre de negocios pone en peligro el desarrollo histórico barrio de la mafia y el desplazamiento de miles de personas, Emily debe unirse con Sean y la turba de convertir su arte de la performance en el arte de protesta, y el riesgo de perder sus sueños de luchar por una causa mayor.






[FORMAT]:???????..Matroska
[GENRE]:???????? Drama | Musica
[FILE SIZE]:??????.. 350 MB
[RESOLUTION]:????...720x304
[LANGUAGE ]:??????Inglés
[SUBTITLES]:??????..No
[RELEASE RUNTIME]:??1Hour nd 27min













Enlaces De Descarga

hnmovies.com
Step Up 4 Miami Heat (2012) TS eng 350mb Mkv
0 Puntos Score: 0/10
Visitas: 3091 Favoritos: 4
17 Comentarios Step Up 4 Miami Heat (2012) TS eng 350mb Mkv
y los subtitulos para cuando, se agradece...
ya salio!!! esperando en 1080p
@andy192 asi te sirve?

Format : MPEG-4 Visual
Format profile : [email protected]
Format settings, BVOP : No
Format settings, QPel : No
Format settings, GMC : No warppoints
Format settings, Matrix : Default (H.263)
Codec ID : XVID
Codec ID/Hint : XviD
Duration : 1h 26mn
Bit rate : 3 293 Kbps
Width : 1 280 pixels
Height : 496 pixels
Display aspect ratio : 2.581
Frame rate : 29.970 fps
Color space : YUV
Chroma subsampling : 4:2:0
Bit depth : 8 bits
Scan type : Progressive
Compression mode : Lossy
Bits/(Pixel*Frame) : 0.173
Stream size : 1.99 GiB (96%)
Writing library : XviD 64

Audio
ID : 1
Format : MPEG Audio
Format version : Version 1
Format profile : Layer 3
Mode : Joint stereo
Mode extension : MS Stereo
Codec ID : 55
Codec ID/Hint : MP3
Duration : 1h 26mn
Bit rate mode : Constant
Bit rate : 128 Kbps
Channel(s) : 2 channels
Sampling rate : 44.1 KHz
Compression mode : Lossy
Delay relative to video : 21ms
Stream size : 79.3 MiB (4%)
Alignment : Split accross interleaves
Interleave, duration : 16352 ms (490.08 video frames)
Writing library : LAME
ahora que me doy cuenta ese tipo esta en la serie the OC
@virtualx no estan de momento salio e 2 de agosto en el cine recien
Cita andy192: Mostrar
si aca aparece tambien

si no sale la mu?
wenisima a mis hijos les encanta... cuando vieron la 3 no pararon de bailar... la descargo cuando tenga los sub, saludos
Cita pizzano: Mostrar
mmmm esperando mejor calidad gracias por el porte
 
link caidos men
Links caidos......
Para dejar un comentario Registrate! o.. eres ya usuario? Accede!