Oops.. Este post tiene los enlaces eliminados!

Identi revisa las denuncias de los usuarios en busca de enlaces eliminados que no dejan descargar los archivos, este mensaje te informa que este post que estas viendo tiene los enlaces eliminados.

Usa el Buscador

Por favor, te recomendamos que uses el buscador para encontrar más alternativas.

Battleship.1080p.DTS.DUAL.Bluray.2012

  • Categoría: Reciclaje
  • Publicado hace más de 4 años
!!atencion!!
estos link no son mios porque no lo puedo subir porque mi internet es de 1mb:cry:  pero lo puedo resubir

TÍTULO ORIGINAL Battleship
AÑO 2012
DURACIÓN 131 min.
PAÍS [Estados Unidos]
DIRECTOR Peter Berg
GUIÓN Erich Hoeber, Jon Hoeber
MÚSICA Steve Jablonsky
FOTOGRAFÍA Tobias A. Schliessler
REPARTO Taylor Kitsch, Liam Neeson, Alexander Skarsgård, Brooklyn Decker, Josh Pence, Rihanna, Tadanobu Asano, Hamish Linklater, Peter MacNicol, John Tui, Jesse Plemons
PRODUCTORA Universal Pictures / Film 44 / Hasbro / Stuber Productions
WEB OFICIAL http://www.battleshipmovie.com/
GÉNERO Ciencia ficción. Acción. Bélico | Aventuras marinas. Extraterrestres

SINOPSIS Libre adaptación cinematográfica del popular juego de mesa de Hasbro conocido como ?Hundir la flota? o ?Batalla naval?. En este caso la batalla será entre la flota de los Estados Unidos y una flota alienígena. Épica aventura que transcurre por mar, cielo y tierra, en la que nuestro planeta lucha por sobrevivir contra una fuerza muy superior. El teniente Hopper (Taylor Kitsch) es un oficial de la Marina destinado al John Paul Jones. Sam Shane (Brooklyn Decker) es una fisioterapeuta de la armada y también la novia de Hopper. Stone (Skarsgard) es el hermano mayor de Hopper y comandante del Samson. La suboficial Raikes (Rihanna) es la especialista en armas del John Paul Jones. Stone y Hopper están a las órdenes del Almirante Shane (Liam Neeson), que es el padre de Sam.

Complete name : Battleship.1080p.DTS.Dual.Bluray.2012
Format : Matroska
Format version : Version 2
File size : 10.6 GiB
Duration : 2h 11mn
Overall bit rate : 11.5 Mbps
Movie name : TRCKHD
Encoded date : UTC 2012-08-05 12:13:40
Writing application : mkvmerge v5.0.1 ('Es ist Sommer') built on Oct 13 2011 10:54:56
Writing library : libebml v1.2.2 + libmatroska v1.3.0

Video
ID : 1
Format : AVC
Format/Info : Advanced Video Codec
Format profile : [email protected]
Format settings, CABAC : Yes
Format settings, ReFrames : 5 frames
Codec ID : V_MPEG4/ISO/AVC
Duration : 2h 11mn
Bit rate : 9 223 Kbps
Width : 1 920 pixels
Height : 800 pixels
Display aspect ratio : 2.40:1
Frame rate : 23.976 fps
Color space : YUV
Chroma subsampling : 4:2:0
Bit depth : 8 bits
Scan type : Progressive
Bits/(Pixel*Frame) : 0.250
Stream size : 8.27 GiB (78%)
Writing library : x264 core 125 r2208 d9d2288
Encoding settings : cabac=1 / ref=5 / deblock=1:0:0 / analyse=0x3:0x133 / me=umh / subme=7 / psy=1 / psy_rd=1.00:0.00 / mixed_ref=1 / me_range=16 / chroma_me=1 / trellis=1 / 8x8dct=1 / cqm=0 / deadzone=21,11 / fast_pskip=0 / chroma_qp_offset=-2 / threads=18 / lookahead_threads=3 / sliced_threads=0 / nr=0 / decimate=1 / interlaced=0 / bluray_compat=0 / constrained_intra=0 / bframes=3 / b_pyramid=2 / b_adapt=1 / b_bias=0 / direct=1 / weightb=1 / open_gop=0 / weightp=2 / keyint=250 / keyint_min=23 / scenecut=40 / intra_refresh=0 / rc_lookahead=40 / rc=2pass / mbtree=1 / bitrate=9223 / ratetol=1.0 / qcomp=0.60 / qpmin=0 / qpmax=69 / qpstep=4 / cplxblur=20.0 / qblur=0.5 / ip_ratio=1.40 / aq=1:1.00
Language : English
Default : Yes
Forced : No

Audio #1
ID : 2
Format : DTS
Format/Info : Digital Theater Systems
Codec ID : A_DTS
Duration : 2h 11mn
Bit rate mode : Constant
Bit rate : 754 Kbps
Channel(s) : 6 channels
Channel positions : Front: L C R, Side: L R, LFE
Sampling rate : 48.0 KHz
Bit depth : 24 bits
Compression mode : Lossy
Stream size : 708 MiB (7%)
Language : Spanish
Default : Yes
Forced : No

Audio #2
ID : 3
Format : DTS
Format/Info : Digital Theater Systems
Codec ID : A_DTS
Duration : 2h 11mn
Bit rate mode : Constant
Bit rate : 1 510 Kbps
Channel(s) : 6 channels
Channel positions : Front: L C R, Side: L R, LFE
Sampling rate : 48.0 KHz
Bit depth : 24 bits
Compression mode : Lossy
Stream size : 1.38 GiB (13%)
Language : English
Default : No
Forced : No

Text #1
ID : 4
Format : UTF-8
Codec ID : S_TEXT/UTF8
Codec ID/Info : UTF-8 Plain Text
Title : Spanish Forzados
Language : Spanish
Default : Yes
Forced : Yes

Text #2
ID : 5
Format : UTF-8
Codec ID : S_TEXT/UTF8
Codec ID/Info : UTF-8 Plain Text
Title : Spanish Completos
Language : Spanish
Default : No
Forced : No

Text #3
ID : 6
Format : PGS
Muxing mode : zlib
Codec ID : S_HDMV/PGS
Codec ID/Info : The same subtitle format used on BDs/HD-DVDs
Title : English
Language : English
Default : No
Forced : No

Formato: Matroska
Video: AVC
Resolucion: 1920 x 800
Format profile: [email protected] Marcos: 5
Audio 1: Spanish DTS 754 Kbps 6 channels
Audio 2: English DTS 1510 Kbps 6 channels
Subtitulos: Español, Español Forzados, Ingles

Links: Jumbofiles, DDLStorage, Rapidgator, 1Fichier, Netload
Archivos: 99 x 115 MB intercambiables
es un archivo dlc inscritado con jdowaloder el dlc se llama yo cantando le puse ese nombre para que mediafire no lo borre
http://www.mediafire.com/?x7908fok2a9k7o4
Battleship.1080p.DTS.DUAL.Bluray.2012
0 Puntos Score: 0/10
Visitas: 4021 Favoritos: 3
26 Comentarios Battleship.1080p.DTS.DUAL.Bluray.2012
hola amigo es espa?
amigo disculpa es que no el entiendo ala info solo cuanto pesa
Cita Rosseu: Mostrar
Cita abraham15: Mostrar
10gb
es demasiado Gb para mi bajo internet. Alguien que la comprima y la suba porfa.  
Cita racxx: Mostrar
mi internet es de 1mb y la pelicula me dura 22 horas descargando
Cita andy192: Mostrar
jajaj como si fuera tan facil
podrian subir solo el audio latino alguien que ya la aya descargado porfavor... gracias de antemano
 
@ROBERCAPO es un poco dificir solo hay que dejar la pc prendida en la noche
porque pesa tanto si no en 1080 original?
@Lios95 men es 1080p yo lo probe y sebe excelente
wi gracias por el aporte... pero yo tengo 512k de bajada... voy a tardar una vida... pero gracias iwal....
Cita master21: Mostrar
tu internet es mejor que el mio el mio descargar a 130kbs
na guara!! no es 1080p la info lo dice!! 1920x800. y pesa 10 gb. ni loco mejor espero la copia en full blu ray y la compro.
mm no sera mucho peso par una pelicula ademas uno la veuna sola ves prefiero un blurayrip de 700 mb de 1280x528 PASA PIOLA
Cita locoyiyo2: Mostrar
a eso le llamas blueray??, para nada, una pelicula con esta calidad no se le compara tanto en im?
entonses es audio latino o no ?
men le aconsejar?
mediafire perd?
10 GB????????????!!!!!!!!!!!!!!!!!!!!!!!!!!!!!!, NI LOCO, GRACIAS DE TODOS MODOS PERO ESO ES DEMASIADO!
Quien es o era el usuario que subia todos sus aportes en menos de 2gb casi todos 1.34gb en maxima calidad 1080p`??  alguien que sepa? o lo conosca, todos los aportes que e visto de 1080p son de DvD completo y tambien tengo un internet muy lento como para descargar tanto peso...
@soncachito nose pero las peliculas pesadas son mejores
@_LUCHO_  que no entendiste ???
esta en "SPANISH":

Cita andy192: Mostrar
la mejor alternativa a un blu ray full es el microHD y un micro hd no baja de 4gb. una pelicula a supuesto 1080p que ocupe 1gb imposible que tenga buena calidad!! si se mira en un pc se ve excelente, pero si la corres en tn tv full HD lloras de la pena!!!
@La Magra  algun enlace para las microHD ..se agradeceria..saludos
Cita lancermmx: Mostrar
man ya te respondi por prive! saludos!
Para dejar un comentario Registrate! o.. eres ya usuario? Accede!