The Dark Knight Rises(2012)









The Dark Knight Rises .CAM.ingles 







La película ?Batman: El caballero de la noche asciende? (The dark knight rises) ofrecerá 164 minutos y 27 segundos (2 horas y 44 minutos) de acción, adrenalina, y lo mejor del Hombre Murciélago; según confirmó el Consejo Británico de Clasificación Cinematográfica.

Este rodaje se ha convertido así en el más extenso de la trilogía, además de ser el largometraje con mayor duración de la filmografía de Christopher Nolan.

El reparto está conformado por Christian Bale, quien vuelve a encarnar a Bruce Wayne; Gary Oldman como el comisario Gordon; Morgan Freeman como Lucius Fox; Anne Hathaway como Catwoman; Marion Cotillard como Miranda Tate; y Sir Michael Caine como Alfred. Completan el cartel principal Joseph Gordon Levitt (John Blake) y Tom Hardy (Bane).

El filme fue rodado en escenarios de la India, Reino Unido, Rumania y Estados Unidos, con un presupuesto aproximado de 250 millones de dólares.










The Dark Knight Rises  CAM 




[NFO]Language :English



Format                                   : AVI
Format/Info                              : Audio Video Interleave
File size                                : 1.93 GiB
Duration                                 : 2h 36mn
Overall bit rate                         : 1 761 Kbps
Writing library                          : VirtualDub build 32842/release

Video
ID                                       : 0
Format                                   : MPEG-4 Visual
Format profile                           : Advanced [email protected]
Format settings, BVOP                    : 2
Format settings, QPel                    : No
Format settings, GMC                     : No warppoints
Format settings, Matrix                  : Default (H.263)
Muxing mode                              : Packed bitstream
Codec ID                                 : XVID
Codec ID/Hint                            : XviD
Duration                                 : 2h 36mn
Bit rate                                 : 1 493 Kbps
Width                                    : 720 pixels
Height                                   : 288 pixels
Display aspect ratio                     : 2.500
Frame rate                               : 29.970 fps
Color space                              : YUV
Chroma subsampling                       : 4:2:0
Bit depth                                : 8 bits
Scan type                                : Progressive
Compression mode                         : Lossy
Bits/(Pixel*Frame)                       : 0.240
Stream size                              : 1.63 GiB (85%)
Writing library                          : XviD 64

Audio
ID                                       : 1
Format                                   : MPEG Audio
Format version                           : Version 1
Format profile                           : Layer 3
Mode                                     : Joint stereo
Mode extension                           : MS Stereo
Codec ID                                 : 55
Codec ID/Hint                            : MP3
Duration                                 : 2h 36mn
Bit rate mode                            : Constant
Bit rate                                 : 256 Kbps
Channel(s)                               : 2 channels
Sampling rate                            : 48.0 KHz
Compression mode                         : Lossy
Delay relative to video                  : 985ms
Stream size                              : 287 MiB (15%)
Alignment                                : Split accross interleaves
Interleave, duration                     : 33 ms (1.00 video frame)
Interleave, preload duration             : 500 ms
Writing library                          : LAME3.99r
Encoding settings                        : -m j -V 4 -q 2 -lowpass 19.7








Ratings: 9.2/10 from 104,612 users   Metascore: 78/100
Reviews: 1,073 user | 183 critic | 43 from Metacritic.com

Eight years on, a new terrorist leader, Bane, overwhelms Gotham's finest, and the Dark Knight resurfaces to protect a city that has branded him an enemy.

Director:
Christopher Nolan
Writers:
Jonathan Nolan (screenplay), Christopher Nolan (screenplay), and 3 more credits ?
Stars:
Christian Bale, Michael Caine and Gary Oldman







Video 

Subtitulos aun no hay

http://www.putlocker.com/file/66D59AAE2A2B0A0E
http://www.putlocker.com/file/0A45A55B7DA7CEC4
http://www.putlocker.com/file/1B05C706512D4970 
http://www.putlocker.com/file/374EE018FFB40A87
http://www.putlocker.com/file/C9890E5D5BF5D5E3
http://www.putlocker.com/file/3CE646E575559BEB
http://www.putlocker.com/file/C38CAEB493CCE583
http://www.putlocker.com/file/8BA4DF16AF16E1CF
http://www.putlocker.com/file/ED94107C16881110
http://www.putlocker.com/file/F4A84DE37AFA90DA
The Dark Knight Rises(2012)
0 Puntos Score: 0/10
Visitas: 3690 Favoritos: 0
3 Comentarios The Dark Knight Rises(2012)
This file doesn't exist, or has been removed.  
@luis2013 oie amigo, perdon se que no tiene nada que ver con el post de batman pero... me baje 7 almas antes que borraran el post, y la contrase?
Para dejar un comentario Registrate! o.. eres ya usuario? Accede!