30 Beats (2012) VODRip XviD-HS




30 Beats (2012) VODRip XviD-HS





Nueva York, en el corazón del verano: una ola de calor transforma la ciudad en una zona tropical. Diez personajes se dibujan, una tras otra, en un anillo de amor y deseo, cada uno atrapado más allá de su control en una reacción en cadena de la seducción, los impulsos y el auto descubrimiento.

Género: Comedia | Romance
Director: Alexis Lloyd
Reparto: Ingeborga Dapkunaite, Jason Day y Vahina Giocante
Idioma: Inglés
Subtítulos: N / A
Tamaño: 1.28GB





http://www.imdb.com/title/tt1484521/

Format: AVI
Format/Info: Audio Video Interleave
Format profile: OpenDML
File size: 1.28 GiB
Duration: 1h 28mn
Overall bit rate: 2 070 Kbps
Writing application: Lavf52.103.0

Video
ID: 1
Format: MPEG-4 Visual
Format settings, BVOP: No
Format settings, QPel: No
Format settings, GMC: No warppoints
Format settings, Matrix: Default (H.263)
Codec ID: XVID
Duration: 1h 28mn
Bit rate: 1 928 Kbps
Width: 720 pixels
Height: 404 pixels
Display aspect ratio: 16:9
Frame rate: 23.976 fps
Color space: YUV
Chroma subsampling: 4:2:0
Bit depth: 8 bits
Scan type: Progressive
Compression mode: Lossy
Bits/(Pixel*Frame): 0.276
Stream size: 1.19 GiB (93%)
Writing library: Lavc52.116.0

Audio
ID: 0
Format: MPEG Audio
Format version: Version 1
Format profile: Layer 3
Mode: Joint stereo
Mode extension: MS Stereo
Codec ID: 55
Codec ID/Hint: MP3
Duration: 1h 28mn
Bit rate mode: Constant
Bit rate: 128 Kbps
Channel(s): 2 channels
Sampling rate: 44.1 KHz
Compression mode: Lossy
Stream size: 81.0 MiB (6%)
Alignment: Aligned on interleaves
Interleave, duration: 42 ms (1.00 video frame)
Writing library: LAME3.98.4


GESTOR DE DESCARGA GRATUITO, RÁPIDO Y LIVIANO




Activa estas 2 OPCIONES y descarga sin problemas
Déjalo abierto y el hace el resto del trabajo


Enlaces De Descarga


PUTLOCKER



GAMEFRONT





buscando


SI TIENES PROBLEMAS PARA VER LAS PELÍCULAS DESCARGA

PAQUETE DE CODECS


TE REGALO ESTE REPRODUCTOR DE VIDEO





peliculas - programas
5 Puntos Score: 5/10
Visitas: 1825 Favoritos: 1
Ver los usuarios que votaron...
7 Comentarios 30 Beats (2012) VODRip XviD-HS
tiene sub integrados....en que idioma esta?
bro. sin comentarios.
@J.ARMANDO eso es un comentario... jajajaja  
[SEPARADOR]2014[/SEPARADOR]
@CARPRISER [SEPARADOR]2016[/SEPARADOR]
@ bostono te luciste con el post, chingon eh!
Para dejar un comentario Registrate! o.. eres ya usuario? Accede!
Facebook Identi