¡Piratas! Una loca Aventura (2012) DVDRip - Latino





Título: ¡Piratas! Una loca aventura
Título original: The Pirates! Band of Misfits
País: USA
Estreno en USA: 27/04/2012
Estreno en España: 17/08/2012
Productora: Sony Pictures Animation
Director: Peter Lord, Jeff Newitt
Guión: Gideon Defoe
Reparto: (Voces de) Hugh Grant, Martin Freeman, David Tennant, Imelda Staunton, Jeremy Piven, Salma Hayek, Brian Blessed, Brendan Gleeson, Russell Tovey, Ashley Jensen

Format                                   : AVI
Format/Info                              : Audio Video Interleave
File size                                : 704 MiB
Duration                                 : 1h 28mn
Overall bit rate                         : 1 117 Kbps

Video
ID                                       : 0
Format                                   : MPEG-4 Visual
Format profile                           : Advanced [email protected]
Format settings, BVOP                    : 2
Format settings, QPel                    : No
Format settings, GMC                     : No warppoints
Format settings, Matrix                  : Default (MPEG)
Muxing mode                              : Packed bitstream
Codec ID                                 : XVID
Codec ID/Hint                            : XviD
Duration                                 : 1h 28mn
Bit rate                                 : 980 Kbps
Width                                    : 640 pixels
Height                                   : 272 pixels
Display aspect ratio                     : 2.35:1
Frame rate                               : 23.976 fps
Original frame rate                      : 25.000 fps
Color space                              : YUV
Chroma subsampling                       : 4:2:0
Bit depth                                : 8 bits
Scan type                                : Progressive
Compression mode                         : Lossy
Bits/(Pixel*Frame)                       : 0.235
Stream size                              : 618 MiB (88%)
Writing library                          : XviD 64

Audio
ID                                       : 1
Format                                   : MPEG Audio
Format version                           : Version 1
Format profile                           : Layer 3
Mode                                     : Joint stereo
Codec ID                                 : 55
Codec ID/Hint                            : MP3
Duration                                 : 1h 28mn
Bit rate mode                            : Constant
Bit rate                                 : 128 Kbps
Channel(s)                               : 2 channels
Sampling rate                            : 48.0 KHz
Compression mode                         : Lossy
Stream size                              : 80.7 MiB (11%)
Alignment                                : Aligned on interleaves
Interleave, duration                     : 42 ms (1.00 video frame)
Interleave, preload duration             : 504 ms
Writing library                          : LAME



Un peculiar grupo de piratas y su capitán desean, por encima de todo, ganar el premio al Pirata del Año. Sus aventuras los llevarán desde las orillas de Isla Sangrienta hasta las calles de Londres. Tendrán que enfrentarse con piratas rivales, pero también se encontrarán con Charles Darwin e incluso con un chimpancé parlante.









http://www.putlocker.com/file/5FD68449E9CD9644

Sigueme y tendras los ultimos estrenos en DVDRip y los que estan en Cartelera!

¡Piratas! Una loca Aventura (2012) DVDRip - Latino
0 Puntos Score: 0/10
Visitas: 1831 Favoritos: 2
12 Comentarios ¡Piratas! Una loca Aventura (2012) DVDRip - Latino
gracias por el aporte.. se ve buena la pelicula...    mis sobrinos se van a volver locos.. gracias...
@moimoi ,@__Buggy__ , a disfrutar en familia  
no me permite  descargar desde Putlocker por favor una ayudita... gracias
deberias poner la resolucion
@wilesc , link sigue activo  
@maxlogan , datos del video agregado  
@maxlogan , estare esperando los puntos      
oye ya pase 7 post con el mismo link  lo quiero en mediafire  nadie lo tiene
@elmuer12 , no subo a mediafire  
Cita zonamixer: Mostrar
no ya me di cuenta que no subes tu
@zonamixer  hola amigo el link debe estar bien pero tengo dias que no puedo descargar de PL no es solo contigo es con cualquier descarga, lo raro es que si la pelicula esta dividida en varias partes solo la primera no la puedo descargar las demas se descargan sin ningun problema!!! no sabes que puedo hacer???
Para dejar un comentario Registrate! o.. eres ya usuario? Accede!