Oops.. Este post tiene los enlaces eliminados!

Identi revisa las denuncias de los usuarios en busca de enlaces eliminados que no dejan descargar los archivos, este mensaje te informa que este post que estas viendo tiene los enlaces eliminados.

Usa el Buscador

Por favor, te recomendamos que uses el buscador para encontrar más alternativas.

Cronicas de Riddick 1080p BDRemux

  • Categoría: Reciclaje
  • Publicado hace más de 4 años
Cronicas de Riddick 1080p BDRemux Castellano

por mas que intente no encontré los audios latinos que cuadren, si alguien gusta colaborar se le agradece.

Reparto: Vin Diesel, Thandie Newton, Judi Dench, Karl Urban, Colm Feore, Linus Roache, Keith David, Yorick van Wageningen, Alexa Davalos
Productora: Universal Studios
Género:  Ciencia ficción. Acción | Extraterrestres. Secuela
País: Estados Unidos
Duración: 2H 14 minutos
Año: 2004

Sinopsis:

Riddick se ha pasado los últimos cinco años vagando por los mundos olvidados de la galaxia, evitando a los mercenarios que buscan su cabeza. Ahora, el fugitivo se encuentra en el planeta Helion, hogar de una sociedad progresista y multicultural que ha sido invadida por Lord Marshal, un déspota que utiliza a los humanos a merced de su ejército de guerreros conocidos como Necromongers.

Película:

Video: 1920X1080
Formato: MKV
Audios: Español Castellano, Español Castellano DTS, Ingles US
Tamaño: 12.1 GB

Detalles de archivo:
General
Unique ID                        : 170578470536712634736994327718359454237 (0x805437EADC648A65AC7C9E084AE3D21D)
Complete name                    : L:MoviezPack Las Cronicas de RiddickLas Cronicas De Riddick.mkv
Format                           : Matroska
File size                        : 12.1 GiB
Duration                         : 2h 14mn
Overall bit rate                 : 12.9 Mbps
Encoded date                     : UTC 2012-03-20 17:29:41
Writing application              : mkvmerge v4.3.0 ('Escape from the Island') realizado en Sep  5 2010 10:30:51
Writing library                  : libebml v1.0.0 + libmatroska v1.0.0

Video
ID                               : 9
Format                           : AVC
Format/Info                      : Advanced Video Codec
Format profile                   : [email protected]
Format settings, CABAC           : No
Format settings, ReFrames        : 1 frame
Format settings, GOP             : M=1, N=12
Muxing mode                      : Header stripping
Codec ID                         : V_MPEG4/ISO/AVC
Duration                         : 2h 14mn
Bit rate                         : 9 846 Kbps
Width                            : 1 920 pixels
Height                           : 1 080 pixels
Display aspect ratio             : 16:9
Frame rate                       : 23.976 fps
Color space                      : YUV
Chroma subsampling               : 4:2:0
Bit depth                        : 8 bits
Scan type                        : Progressive
Bits/(Pixel*Frame)               : 0.198
Stream size                      : 9.22 GiB (76%)

Audio #1
ID                               : 1
Format                           : AC-3
Format/Info                      : Audio Coding 3
Mode extension                   : CM (complete main)
Muxing mode                      : Header stripping
Codec ID                         : A_AC3
Duration                         : 2h 14mn
Bit rate mode                    : Constant
Bit rate                         : 640 Kbps
Channel(s)                       : 6 channels
Channel positions                : Front: L C R, Side: L R, LFE
Sampling rate                    : 48.0 KHz
Bit depth                        : 16 bits
Compression mode                 : Lossy
Stream size                      : 614 MiB (5%)
Title                            : ac3
Language                         : Spanish

Audio #2
ID                               : 2
Format                           : DTS
Format/Info                      : Digital Theater Systems
Format profile                   : MA / Core
Muxing mode                      : Header stripping
Codec ID                         : A_DTS
Duration                         : 2h 14mn
Bit rate mode                    : Variable
Bit rate                         : 1 561 Kbps / 1 510 Kbps
Channel(s)                       : 6 channels
Channel positions                : Front: L C R, Side: L R, LFE
Sampling rate                    : 48.0 KHz
Bit depth                        : 24 bits
Compression mode                 : Lossless / Lossy
Title                            : dts-hd
Language                         : Spanish

Audio #3
ID                               : 3
Format                           : AC-3
Format/Info                      : Audio Coding 3
Mode extension                   : CM (complete main)
Muxing mode                      : Header stripping
Codec ID                         : A_AC3
Duration                         : 2h 14mn
Bit rate mode                    : Constant
Bit rate                         : 640 Kbps
Channel(s)                       : 6 channels
Channel positions                : Front: L C R, Side: L R, LFE
Sampling rate                    : 48.0 KHz
Bit depth                        : 16 bits
Compression mode                 : Lossy
Stream size                      : 614 MiB (5%)
Title                            : ingles
Language                         : English

Text #1
ID                               : 4
Format                           : VobSub
Muxing mode                      : zlib
Codec ID                         : S_VOBSUB
Codec ID/Info                    : The same subtitle format used on DVDs
Language                         : Spanish

Text #2
ID                               : 5
Format                           : VobSub
Muxing mode                      : zlib
Codec ID                         : S_VOBSUB
Codec ID/Info                    : The same subtitle format used on DVDs
Language                         : Spanish

Text #3
ID                               : 6
Format                           : VobSub
Muxing mode                      : zlib
Codec ID                         : S_VOBSUB
Codec ID/Info                    : The same subtitle format used on DVDs
Language                         : Spanish

Text #4
ID                               : 7
Format                           : VobSub
Muxing mode                      : zlib
Codec ID                         : S_VOBSUB
Codec ID/Info                    : The same subtitle format used on DVDs
Language                         : English

Text #5
ID                               : 8
Format                           : VobSub
Muxing mode                      : zlib
Codec ID                         : S_VOBSUB
Codec ID/Info                    : The same subtitle format used on DVDs
Language                         : English












*.Mt2Adventure.com/


Cronicas de Riddick 1080p BDRemux
8 Puntos Score: 4/10
Visitas: 1719 Favoritos: 4
Ver los usuarios que votaron...
10 Comentarios Cronicas de Riddick 1080p BDRemux
buen post   ,pero porque la info de la peli es demasiado larga ???
pesa mucho para que la pueda bajar
es lod el media info, dice exactamente la composicion del archivo de video, para ke no se extra?
@shaka33 si me sale bien el experimento ke estoy haciendo tal vez la subaa mas ligera de 4 GB, el costo es resolucion de video.
uf nunca vi una peli con ese peso, de todas formas ya vi esta peli, es muy buena, es una de mis favoritas.
muchas gracias yo por el peso no me asusto, ojala se pueda conseguir el audio latino pero bueno, a y tendrias que poner en la info de video nadamas unas cuantas cosas como por ejemplo, Bit rate , canales de audio y resolucion. saludos y gracias
no es BDREMUX , esta mala la info si fuera BDREMUX deber?
Excelente aporte, ya la descargue, esta perfecta. muchas gracias!
@SnooPy_007 Cone se nombre la baje, crei ke si ponia eso pensarian ke es la version pesada, de hecho esta pelicula solo salio en DVD9. Tambien postee una version reducida por mi. saludos.
@Mr_Movies  Copy & page jajajajaja
Para dejar un comentario Registrate! o.. eres ya usuario? Accede!