Oops.. Este post tiene los enlaces eliminados!

Identi revisa las denuncias de los usuarios en busca de enlaces eliminados que no dejan descargar los archivos, este mensaje te informa que este post que estas viendo tiene los enlaces eliminados.

Usa el Buscador

Por favor, te recomendamos que uses el buscador para encontrar más alternativas.

Pearl Harbor 1080p

  • Categoría: Reciclaje
  • Publicado hace más de 4 años
Pearl Harbor 1080p Castellano

por mas que intente no encontré los audios latinos que cuadren si alguien gusta colaborar se le agradece.

Reparto: Ben Affleck (Rafe McCawley), Josh Hartnett (Danny Walker), Kate Beckinsale (Evelyn Johnson), Cuba Gooding Jr. (Doris 'Dorie' Miller), Dan Aykroyd (capitán Thurman), Tom Sizemore (Earl), William Lee Scott (Billy), Greg Zola (Anthony Winkle), Ewen Bremmer (Red), Alec Baldwin (Doolittle), James King (Betty), Catherine Kellner (Barbara), Jennifer Garner (Sandra), Michael Shannon (Theo), Jon Voight (presidente Roosevelt), Matthew Davis (Joe), Mako (almirante Yamamoto).
Productora: Touchstone Pictures / Jerry Bruckheimer Films
Género:  Bélico. Acción. Drama. Romance | II Guerra Mundial. Pearl Harbor. Drama romántico. Aviones
País: Estados Unidos
Duración: 3H  3 Minutos
Año: 2001

Sinopsis:

Rafe y Danny crecieron juntos en una zona rural estadounidense y su amistad se ha prolongado a lo largo de los años hasta las filas de la Fuerza aérea, donde los dos son pilotos de guerra. Rafe encontró en Evelyn, una valiente enfermera, al amor de su vida, pero pronto es llamado a servir en la Fuerza aérea británica (RAF) para combatir a los Nazis como representante del ejército norteamericano. Mientras tanto, Danny y Evelyn son enviados a la base aérea de Pearl Harbor en Hawai. Pronto ellos se enteran de la muerte de Rafe en un combate aéreo, y en medio del dolor y el mutuo consuelo, Danny y Evelyn se enamoran, pero -al contrario de lo que todos creían- Rafe no ha muerto, y llega a Pearl Harbor justo para el cruento ataque sorpresa con el que Japón involucró definitivamente a los Estados Unidos en la Segunda Guerra Mundial. Como un acto de venganza, los EEUU deciden enviar una misión suicida hacia Tokio, y tanto Rafe como Danny forman parte de la misión.

Película:

Video: 1920X804
Formato: MKV
Audios: Español Castellano, Italiano, Ingles US
Tamaño: 7.15 GB

Detalles de archivo:
General
Unique ID                        : 230428062855200803450742174789822020597 (0xAD5AD4A409549055AB5D1863B23F7BF5)
Complete name                    : L:MoviezPearl HarborPearl Harbor.2001.BDrip.m1080p.x264.AC3.Dual.mkv
Format                           : Matroska
File size                        : 7.15 GiB
Duration                         : 3h 3mn
Overall bit rate                 : 5 589 Kbps
Encoded date                     : UTC 2012-02-19 10:04:15
Writing application              : mkvmerge v4.0.0 ('The Stars were mine') built on Jun  6 2010 16:18:42
Writing library                  : libebml v1.0.0 + libmatroska v1.0.0

Video
ID                               : 1
Format                           : AVC
Format/Info                      : Advanced Video Codec
Format profile                   : [email protected]
Format settings, CABAC           : Yes
Format settings, ReFrames        : 4 frames
Codec ID                         : V_MPEG4/ISO/AVC
Duration                         : 3h 3mn
Bit rate                         : 4 500 Kbps
Width                            : 1 920 pixels
Height                           : 804 pixels
Display aspect ratio             : 2.35:1
Frame rate                       : 23.976 fps
Color space                      : YUV
Chroma subsampling               : 4:2:0
Bit depth                        : 8 bits
Scan type                        : Progressive
Bits/(Pixel*Frame)               : 0.122
Stream size                      : 5.61 GiB (79%)
Title                            : Pearl Harbor.2001.BDrip.m1080p.x264.AC3.Dual.by.xevious
Writing library                  : x264 core 116 r2074 2641b9e
Encoding settings                : cabac=1 / ref=4 / deblock=1:-1:-1 / analyse=0x3:0x113 / me=umh / subme=7 / psy=1 / psy_rd=1.00:0.00 / mixed_ref=1 / me_range=16 / chroma_me=1 / trellis=2 / 8x8dct=1 / cqm=0 / deadzone=21,11 / fast_pskip=1 / chroma_qp_offset=-2 / threads=9 / sliced_threads=0 / nr=0 / decimate=1 / interlaced=0 / bluray_compat=0 / constrained_intra=0 / bframes=3 / b_pyramid=2 / b_adapt=2 / b_bias=0 / direct=3 / weightb=1 / open_gop=0 / weightp=2 / keyint=250 / keyint_min=23 / scenecut=40 / intra_refresh=0 / rc_lookahead=40 / rc=2pass / mbtree=1 / bitrate=4500 / ratetol=1.0 / qcomp=0.60 / qpmin=10 / qpmax=51 / qpstep=4 / cplxblur=20.0 / qblur=0.5 / vbv_maxrate=50000 / vbv_bufsize=50000 / nal_hrd=none / ip_ratio=1.40 / aq=1:1.00

Audio #1
ID                               : 2
Format                           : AC-3
Format/Info                      : Audio Coding 3
Mode extension                   : CM (complete main)
Codec ID                         : A_AC3
Duration                         : 3h 3mn
Bit rate mode                    : Constant
Bit rate                         : 640 Kbps
Channel(s)                       : 6 channels
Channel positions                : Front: L C R, Side: L R, LFE
Sampling rate                    : 48.0 KHz
Bit depth                        : 16 bits
Compression mode                 : Lossy
Stream size                      : 838 MiB (11%)
Language                         : Spanish

Audio #2
ID                               : 3
Format                           : AC-3
Format/Info                      : Audio Coding 3
Mode extension                   : CM (complete main)
Codec ID                         : A_AC3
Duration                         : 3h 3mn
Bit rate mode                    : Constant
Bit rate                         : 448 Kbps
Channel(s)                       : 6 channels
Channel positions                : Front: L C R, Side: L R, LFE
Sampling rate                    : 48.0 KHz
Bit depth                        : 16 bits
Compression mode                 : Lossy
Stream size                      : 587 MiB (8%)
Language                         : English

Text #1
ID                               : 4
Format                           : UTF-8
Codec ID                         : S_TEXT/UTF8
Codec ID/Info                    : UTF-8 Plain Text
Title                            : Forzados
Language                         : Spanish

Text #2
ID                               : 5
Format                           : UTF-8
Codec ID                         : S_TEXT/UTF8
Codec ID/Info                    : UTF-8 Plain Text
Language                         : Spanish

Text #3
ID                               : 6
Format                           : UTF-8
Codec ID                         : S_TEXT/UTF8
Codec ID/Info                    : UTF-8 Plain Text
Title                            : Ingles











*.Mt2Adventure.com/


Pearl Harbor 1080p
25 Puntos Score: 8.3/10
Visitas: 3226 Favoritos: 10
Ver los usuarios que votaron...
28 Comentarios Pearl Harbor 1080p
muchas gracias por la movie el user de arriba da miedo.
Amigo esta en latino??
Perdon no habia leido xDD!!
gracias te van 10 puntos
muchas gracias  
ayuda x favor me da error al descomprimir me dice q la contrase?
Cita: Mostrar
-> lo volvi a comprobar si es esa. gracias por tu comentario.
muchas gracias a vos x la pelicula, lo mismome da error estoy bajando de neuvo a part1 y la 3 q son las q me dan error.. saludos
ok @roly560 nos dejas saber si te result?
@juancar01 me baje las partes da?
Hola la baje con el jdownloadre y al descomprimir dice que falta la parte 9,que hago?,salu2
Hola gente muchas gracias por la pel?
@sergi07 verifique los enlaces y estan online, creo ke te descargo mal esa parte, intenta bajarla nuevamente.
@Calixx Con VLC o BSPlayer puedes elegir la cadena de audio ke kieres reproducir.
no podes ponerla o pasarme el link si es que la subis por ejemplo a mediafire,es un monton bajar todo de vuelta,por favor si podes ayudame gracias
bueno es mas seguro de esta forma.
gracias , amigo ,, una peli muy buena ,,,, y mejor en HD , excelente graciassss..
Hola que tal muy bueno el aporte... ac?
no le podes poner el audio latino d un dvdrip?
 
@Gonza1022410 si podria, solo ke la version dvd venia en dos DVD5, los audios ke he conseguido dvdrip siempre se mutean cuando habla el presidente y a partir de ahi se descuadran terriblemetne.
no la tienes en audio latino
@rocky77 al parecer la version con audio latino estaba en dos dvd, la version Blue ray solo en castellano.
HOLA AMIGO QUE TAL, GRACIAS POR EL APORTE GRANDIOSO, SOLO TENGO UNA DUDA MIRA LA QUEME EN UN DISCO BLU RAY Y AL PONERLA A REPRODUCIR EN EL REPRODUCTOR ME DOY CUENTA QUE NO AGREGO EL AUDIO EN INGLES Y NINGUN SUBTITULO SOLO EL AUDIO EN CASTELLANO, SABES A QUE SE DEBE ESO EN VERDAD TE LO AGRADESCO DE ANTEMANO YA QUE ME GUSTARIA ESCUCHARLA EN INGLES Y CON SUB, ME PODRIAS AYUDAR? GRACIAS...
u.u te lo responderia con certeza pero ....    no tengo blu ray. todo lo tengo en discos duros.
Gracias por el tremedo aporte saludoss  
Para dejar un comentario Registrate! o.. eres ya usuario? Accede!