Piratas del Caribe 3 (1080p Dual Lat/Ing) Resubida

Piratas Del Caribe En El Fin Del Mundo 1080p mkv BRrip (Dual latino/ingles 5.1) Resubida GameFront









PIRATAS DEL CARIBE: EN EL FIN DEL MUNDO
(Pirates of the Caribbean: At world's end)

SINOPSIS

Lord Cutler Beckett (Tom Hollander), de la Compañía de las Indias Orientales, se ha hecho con el control del aterrador barco fantasma, el Holandés Errante, y de su malvado y vengativo capitán, Davy Jones (Bill Nighy). Ahora el Holandés surca imparable los siete mares, destruyendo sin piedad los barcos piratas a las órdenes del almirante Norrington (Jack Davenport). Will Turner (Orlando Bloom), Elizabeth Swann (Keira Knightley) y el capitán Barbossa (Geoffrey Rush) se embarcan en una desesperada búsqueda para reunir a los Nueve Lores de la Corte de Brethren: su única esperanza de vencer a Beckett, al Holandés Errante y a su Armada. Pero uno de los lores ha desaparecido: el capitán Jack Sparrow (Johnny Depp), el mejor y el peor pirata de todos los tiempos que ahora está encerrado en la bodega de Davy Jones debido a su encuentro con el monstruoso Kraken. En una alianza cada vez más frágil, nuestros héroes deberán viajar primero al exótico y peligroso Singapur y enfrentarse al pirata chino, el capitán Sao Feng (Chow Yun Fat), con el fin de conseguir las cartas de navegación y un barco que les lleve al fin del mundo para rescatar a Jack. A medida que se van sucediendo las traiciones, está cada vez más claro que Jack, Will, Elizabeth, Sao Feng y Barbossa tienen sus propios planes, y ninguno puede confiar en los demás. Asimismo, cada uno debe elegir un bando y crear una alianza final para librar una última batalla.

Dirección: Gore Verbinski.
País: USA.
Año: 2007.
Duración: 168 min.
Género: Acción, aventuras, fantasía.
Guión: Ted Elliott y Terry Rossio; basado en los personajes creados por Ted Elliott, Terry Rossio, Stuart Beattie y Jay Wolpert.
Productora: Walt Disney Pictures, Jerry Bruckheimer Films, Second Mate Productions
Música: Hans Zimmer.
Fotografía: Dariusz Wolski.
Montaje: Stephen E. Rivkin y Craig Wood.
Diseño de producción: Rick Heinrichs.
Vestuario: Penny Rose.
Estreno en USA: 24 Mayo 2007.
Reparto : Johnny Depp (capitán Jack Sparrow), Orlando Bloom (Will Turner), Keira Knightley (Elizabeth Swann), Geoffrey Rush (capitán Barbossa), Bill Nighy (Davy Jones), Chow Yun Fat (capitán Sao Feng), Stellan Skarsgård (Bill Turner), Jack Davenport (James Norrington), Naomie Harris (Tia Dalma), Tom Hollander (lord Cutler Beckett), Jonathan Pryce (gobernador Weatherby Swann).

ficha técnica

Genero: Comedia - Acción - Aventura - Fantástica
Pais: USA
Duracion: 02:48:30
Año: 2007
Tamaño: 4.11 GB
Formato: MKV
Resolución: 1920 x 832

Idioma:
Audio #1
ID                             : 2
Format                         : AC-3
Format/Info                    : Audio Coding 3
Mode extension                 : CM (complete main)
Codec ID                       : A_AC3
Duration                       : 2h 48mn
Bit rate mode                  : Constant
Bit rate                       : 640 Kbps
Channel(s)                     : 6 channels
Channel positions              : Front: L C R, Side: L R, LFE
Sampling rate                  : 48.0 KHz
Bit depth                      : 16 bits
Compression mode               : Lossy
Stream size                    : 771 MiB (18%)
Language                       : English

Audio #2
ID                             : 3
Format                         : AC-3
Format/Info                    : Audio Coding 3
Mode extension                 : CM (complete main)
Codec ID                       : A_AC3
Duration                       : 2h 48mn
Bit rate mode                  : Constant
Bit rate                       : 640 Kbps
Channel(s)                     : 6 channels
Channel positions              : Front: L C R, Side: L R, LFE
Sampling rate                  : 48.0 KHz
Bit depth                      : 16 bits
Compression mode               : Lossy
Stream size                    : 771 MiB (18%)
Language                       : Spanish
















La volvi a subir pues me eliminaron la cuenta de mediafire...disfrutenla!!!!

no tiene
Piratas del Caribe 3 (1080p Dual Lat/Ing) Resubida
25 Puntos Score: 8.3/10
Visitas: 3121 Favoritos: 5
Ver los usuarios que votaron...
22 Comentarios Piratas del Caribe 3 (1080p Dual Lat/Ing) Resubida
gracias bajandoooooooooooooooooooooooooooooooooooooooooooooooooooooooooooooooooooooooo
Cita GustavBeav: Mostrar
Cita GustavBeav: Mostrar
amigo un poco de respeto con los usuarios porfavor ya he visto tus comentarios anteriores y no aportas nada interezante, respeta para q te respeten....sino te gusta la peli no la descargues y punto.
la espera hace rato  
Cita Mr_Movies: Mostrar
gracias amigo por pasar y por los puntos...espero q te guste...saludos
alguien sabe porke a veces no se pueden agregar los enlaces?
Lastima que no lo puedo descargar pero buen aporte  
@dark_rey ten abierto el mipony o jd luego clickea donde dice agregar links y listo se abrira una pesta?
es una gran pel?
Excelente andrajositooo!! Ma?
Cita TR4UL05: Mostrar
Cita andrajoso: Mostrar

descuida colega, este tio es un troll de aquellos... ya envie un mensaje a un mod sobre esto, pronto se solucionara
a pesar de pesar mas de 4 gigas no se ve muy bien Yo tengo peliculas mas 2 gigas en 1080p ke se ven mucho mejor
@TR4UL05 hola parcerito graciaaaaassss por pasar y por los puntos.....saludos cuidate
graciassss te mereces 10
Cita FenlotDJ: Mostrar
gracias amigo por los puntos....saludos
muchas graciaas te pasaste men  ?
me gustaron todas las peliculas sin duda es de lo mejor de disney en estos tiempos, no me la descargo porque mi disco duro esta a tope de almacenamiento, sino si me la descargaba, pero que aporte y sin duda vale la pena verla en buena calidad
Hey no puedes subir esa pel?
gracias amigo, muy buen aporte
quiero bajar esta pelicula y la 2 que tienes, los links son por buen server, estan activos, pero tengo error en el jd y no puedo bajarlos, podr?
como dice el amigo de arriba, da problemas bajar con el jd...
nose pueden descargar con mipony me marca que estan bien pero me marca error
Para dejar un comentario Registrate! o.. eres ya usuario? Accede!